Марлон Брандо: Актер по имени ''Желание'' / Marlon Brando: An Actor Named Desire (Филипп Коли / Philippe Kohly) [2014, документальный, биография, HDTVRip] MVO (1 канал)


Статистика раздачи [Обновить пиров]
Размер:  1.37 GB   |    Зарегистрирован:  8 месяцев 17 дней   |    Скачан:  2 раза

Полного источника не было: 2 часа 46 минут

 
   
 
 
 

[Цитировать]

Марлон Брандо: Актер по имени ''Желание'' / Marlon Brando: An Actor Named Desire
Дата/Год выпуска: 2014
Страна: Франция
Жанр: документальный, биография
Продолжительность: 01:28:52
Перевод: Профессиональный (многоголосый закадровый)
Русские субтитры: нет
Оригинальная аудиодорожка: нет
Режиссер: Филипп Коли / Philippe Kohly
Телеканал: 1 канал
Описание: Лето 1943. 19-летний молодой человек в джинсах, футболке и красной шляпе с полями приезжает в Нью-Йорк с несколькими долларами в кармане. Его мечта – стать величайшим актером в мире. Спустя одиннадцать лет после ролей в фильмах "Трамвай "Желание"", "Дикарь" и "В порту", он приобретает титул "короля актеров". Он не только производит революцию в своей профессии благодаря принципиально новой игре, но становится идолом и источником вдохновения для всего молодого поколения. Но за голливудским образом скрывается другой человек: настоящий, неизвестный Брандо. Этот фильм воссоздает выдающуюся личность Брандо, объединяя все ее элементы, не вынося оценочных суждений, для чего потребовалась большая работа с архивами и избранными выдержками из его наиболее запоминающихся выступлений.
Доп. информация: Рип с канала Первый HD. Из видеоряда удален логотип канала, остались послерекламные вставки с названием фильма.
Сэмпл: http://multi-up.com/1021083
качество: HDTVRip
формат: AVI
Видео: MPEG4, XviD, 720x400 (16/9), 25.000 fps, 2 007 Kbps (0.279 bit/pixel)
Аудио: AC-3, 48.0 KHz, 2 ch, 192 Kbps, CBR

MediaInfo

Общее
Полное имя : K:\Марлон Брандо. Актер по имени Желание.avi
Формат : AVI
Формат/Информация : Audio Video Interleave
Размер файла : 1,37 Гбайт
Продолжительность : 1 ч. 28 м.
Общий поток : 2209 Кбит/сек
Название фильма : Марлон Брандо: Актер по имени ''Желание'' / Marlon Brando: An Actor Named Desire (2014)
Программа кодирования : VirtualDubMod 1.5.10.2 (build 2540/release)
Библиотека кодирования : VirtualDubMod build 2540/release
Правообладатель : miha2154
Видео
Идентификатор : 0
Формат : MPEG-4 Visual
Профиль формата : Advanced Simple@L5
Параметр BVOP формата : 1
Параметр QPel формата : Нет
Параметр GMC формата : Без точки перехода
Параметр матрицы формата : Выборочная
Идентификатор кодека : XVID
Идентификатор кодека/Подсказка : XviD
Продолжительность : 1 ч. 28 м.
Битрейт : 2007 Кбит/сек
Ширина : 720 пикселей
Высота : 400 пикселей
Соотношение сторон : 16:9
Частота кадров : 25,000 кадров/сек
Цветовое пространство : YUV
Субдискретизация насыщенности : 4:2:0
Битовая глубина : 8 бит
Тип развёртки : Прогрессивная
Метод сжатия : С потерями
Бит/(Пиксели*Кадры) : 0.279
Размер потока : 1,25 Гбайт (91%)
Библиотека кодирования : XviD 65
Аудио
Идентификатор : 1
Формат : AC-3
Формат/Информация : Audio Coding 3
Расширение режима : CM (complete main)
Параметр Endianness формата : Big
Идентификатор кодека : 2000
Продолжительность : 1 ч. 28 м.
Вид битрейта : Постоянный
Битрейт : 192 Кбит/сек
Каналы : 2 канала
Расположение каналов : Front: L R
Частота : 48,0 КГц
Битовая глубина : 16 бит
Метод сжатия : С потерями
Размер потока : 122 Мбайт (9%)
Выравнивание : Разделение по промежуткам
Продолжительность промежутка : 40 мс. (1,00 видеокадр)
Время предзагрузки промежутка : 500 мс.
Заголовок : Профессиональный (многоголосый закадровый) 1 канал

Скриншоты

[teatrix.ru].t19782.torrent 
Торрент: Зарегистрирован [ 2016-03-19 00:03 ] · 616F6CA2B68035AB8B2616576589D50ABD0658A2

Скачать .torrent

Скачать

14 KB

Статус: проверено
Скачан: 2 раз
Размер: 1.37 GB
terms.php



Быстрый ответ

Имя:

      
Для отправки сообщений необходимо включить JavaScript
Показать сообщения:    

Текущее время: 05-Дек 23:40

Часовой пояс: UTC + 3


Вы можете начинать темы
Вы можете отвечать на сообщения
Вы не можете редактировать свои сообщения
Вы не можете удалять свои сообщения
Вы не можете голосовать в опросах
Вы не можете прикреплять файлы к сообщениям
Вы можете скачивать файлы