Жёстокий романс. А напоследок я скажу... (Сергей Кожевников) [2014, Документальный, SATRip]


Статистика раздачи [Обновить пиров]
Размер:  689 MB   |    Зарегистрирован:  8 месяцев 16 дней   |    Скачан:  0 раз

Полного источника не было: Никогда

 
   
 
 
 

[Цитировать]

Жёстокий романс. А напоследок я скажу...
Дата/Год выпуска: 2014
Страна: Россия
Жанр: Документальный
Продолжительность: 00:48:06
Перевод: Не требуется
Русские субтитры: нет
Режиссер: Сергей Кожевников
Телеканал: Останкино
Описание: В начале 80-х Эльдар Рязанов, не раз проклиная собственное решение, приступил к съемкам "Жестокого романса". Никогда прежде он не экранизировал русскую классику, тем более что по пьесе А.Островского "Бесприданница" уже был снят фильм в 1936-м году.
Но после картины "Вокзал для двоих" у Рязанова возникла долгая пауза в работе, и он решил: пока нет подходящего современного материала, можно заняться наследием театрального мэтра. Эта работа, казалось тогда режиссеру, больших хлопот не доставит…
Подробности съемок, все, что осталось за кадром "Жестокого романса", судьбы актеров, занятых в картине, печальная история парохода "Ласточка", неизвестные герои эпизодов и певцы-цыгане, которые до этого никогда не давали интервью – всё это зрители увидят в нашем фильме.
В фильме принимают участие: Никита Михалков, Алиса Фрейндлих, Андрей Мягков, Александр Панкратов-Чёрный, Лариса Гузеева, Виктор Проскурин, Сергей Арцыбашев, Дмитрий Бузылев, Вадим Алисов – оператор картины, Сергей Скрипка – дирижер, Евгений Цымбал – кинорежиссер, и др.
качество: SATRip
формат: AVI
Видео: XviD, 704x448, 16:10, 1800 kbps, 25.000 fps
Аудио: AC3, 192 kbps, 48.0 kHz, 2 ch.

MediaInfo

Общее
Формат : AVI
Формат/Информация : Audio Video Interleave
Размер файла : 689 Мбайт
Продолжительность : 48 м.
Общий поток : 2001 Кбит/сек
Программа кодирования : VirtualDubMod 1.5.10.3 | www.virtualdub-fr.org || (build 2550/release)
Библиотека кодирования : VirtualDubMod build 2550/release
Видео
Идентификатор : 0
Формат : MPEG-4 Visual
Профиль формата : Advanced Simple@L5
Параметр BVOP формата : 2
Параметр QPel формата : Нет
Параметр GMC формата : Без точки перехода
Параметр матрицы формата : Default (H.263)
Идентификатор кодека : XVID
Идентификатор кодека/Подсказка : XviD
Продолжительность : 48 м.
Битрейт : 1800 Кбит/сек
Ширина : 704 пикселя
Высота : 448 пикселей
Соотношение сторон : 16:10
Частота кадров : 25,000 кадров/сек
Цветовое пространство : YUV
Субдискретизация насыщенности : 4:2:0
Битовая глубина : 8 бит
Тип развёртки : Прогрессивная
Метод сжатия : С потерями
Бит/(Пиксели*Кадры) : 0.228
Размер потока : 619 Мбайт (90%)
Библиотека кодирования : XviD 1.2.1 (UTC 2008-12-04)
Аудио
Идентификатор : 1
Формат : AC-3
Формат/Информация : Audio Coding 3
Расширение режима : CM (complete main)
Параметр Endianness формата : Big
Идентификатор кодека : 2000
Продолжительность : 48 м.
Вид битрейта : Постоянный
Битрейт : 192 Кбит/сек
Каналы : 2 канала
Расположение каналов : Front: L R
Частота : 48,0 КГц
Битовая глубина : 16 бит
Метод сжатия : С потерями
Размер потока : 66,1 Мбайт (10%)
Выравнивание : Разделение по промежуткам
Продолжительность промежутка : 40 мс. (1,00 видеокадр)
Время предзагрузки промежутка : 500 мс.

Скриншоты

[teatrix.ru].t19786.torrent 
Торрент: Зарегистрирован [ 2016-03-19 00:03 ] · 58F62526B1910DEF8EEF0C1181C05B5162651B51

Скачать .torrent

Скачать

14 KB

Статус: проверено
Скачан: 0 раз
Размер: 689 MB
terms.php



Показать сообщения:    

Текущее время: 04-Дек 23:24

Часовой пояс: UTC + 3


Вы не можете начинать темы
Вы не можете отвечать на сообщения
Вы не можете редактировать свои сообщения
Вы не можете удалять свои сообщения
Вы не можете голосовать в опросах
Вы не можете прикреплять файлы к сообщениям
Вы можете скачивать файлы