(Opera) Martinu - The Greek Passion (Field, Tomlinson, Joll, Moses, Davies - Brno State Philharmonic Orchestra, Mackerras) - 1994, APE (image+.cue) lossless


 

[Цитировать]

Bohuslav Martinu - The Greek Passion
Жанр: Opera
Страна-производитель диска: Czechoslovakia
Год издания диска: 1994
Издатель (лейбл): Supraphon
Номер по каталогу: 10 3611-2
Дата записи: 1981
Аудиокодек: APE
Тип рипа: image+.cue
Битрейт аудио: lossless
Продолжительность: 53'09+61'46
Источник: собственный рип
Наличие сканов в содержимом раздачи: да
Треклист:
CD 1
1. Act 1 00:28:26
2. Act 2 00:24:36
CD 2
1. Act 3 00:33:50
2. Act 4 00:27:49
Исполнители:
Bohuslav Martinu - The Greek Passion
Opera in 4 Acts after the novel Christ Recrucified by Nikos Kazantzakis
Katerina - Helen Field (Soprano)
Manolius - John Mitchinson (Tenor)
Grigoris - John Tomlinson (Bass)
Kostandis - Phillip Joll (Tenor)
Fotis - Geoffrey Moses (Bass)
Yannakos - Arthur Davies (Tenor)
Lenio - Rita Cullis (Soprano)
Michelis - John Harris (Tenor)
Adonis - Jeffrey Lawton (Tenor)
Despinio - Jana Jonásová (Soprano)
Old Man - David Gwynne (Bass)
Old Woman - Catherine Savory (Soprano)
Prague Philharmonic Choir
Kühn Children´s Chorus
Brno State Philharmonic Orchestra
Sir Charles Mackerras

Лог создания рипа

CD1

Exact Audio Copy V1.0 beta 3 from 29. August 2011
EAC extraction logfile from 29. October 2013, 17:30
Martinu / The Greek Passion, Mackerras 1981 CD1
Used drive : TSSTcorpCDDVDW SH-216AB Adapter: 0 ID: 1
Read mode : Secure
Utilize accurate stream : Yes
Defeat audio cache : Yes
Make use of C2 pointers : No
Read offset correction : 6
Overread into Lead-In and Lead-Out : No
Fill up missing offset samples with silence : Yes
Delete leading and trailing silent blocks : No
Null samples used in CRC calculations : Yes
Used interface : Native Win32 interface for Win NT & 2000
Used output format : Monkey's Audio Lossless Encoder
Selected bitrate : High Lossless Compression
Quality : High
Add ID3 tag : Yes
Command line compressor : K:\Program Files (x86)\Exact Audio Copy\Monkeys Audio\Monkey's Audio\MAC.exe
Additional command line options : -6 -V -T "ARTIST=%artist%" -T "TITLE=%title%" -T "ALBUM=%albumtitle%" -T "DATE=%year%" -T "TRACKNUMBER=%tracknr%" -T "GENRE=%genre%" -T "COMMENT=%comment%" -T "BAND=%albuminterpret%" -T "ALBUMARTIST=%albuminterpret%" -T "COMPOSER=%composer%" %haslyrics%--tag-from-file=LYRICS="%lyricsfile%"%haslyrics% -T "DISCNUMBER=%cdnumber%" -T "TOTALDISCS=%totalcds%" -T "TOTALTRACKS=%numtracks%" %hascover%--picture="%coverfile%"%hascover% %source% -o %dest%
TOC of the extracted CD
Track | Start | Length | Start sector | End sector
---------------------------------------------------------
1 | 0:00.33 | 28:31.27 | 33 | 128384
2 | 28:31.60 | 24:35.18 | 128385 | 239027
Range status and errors
Selected range
Filename I:\Foobar-EAC\Martinu - The Greek Passion, Mackerras 1981 CD1.wav
Peak level 72.4 %
Extraction speed 2.4 X
Range quality 100.0 %
Test CRC 05384025
Copy CRC 05384025
Copy OK
No errors occurred
AccurateRip summary
Track 1 accurately ripped (confidence 2) [9EC7319E] (AR v1)
Track 2 accurately ripped (confidence 2) [33031984] (AR v1)
All tracks accurately ripped
End of status report
---- CUETools DB Plugin V2.1.3
[CTDB TOCID: jC5DwavEIPC8xqJcF6tEc1nl1gk-] disk not present in database, Submit result: discs with pregaps not supported in this protocol version
==== Log checksum FF0D32A97D936B45E1C4430B71C0334DC052640756F9C7695C776C4F49DF882B ====

CD2

Exact Audio Copy V1.0 beta 3 from 29. August 2011
EAC extraction logfile from 29. October 2013, 17:13
Martinu / The Greek Passion, Mackerras 1981 CD2
Used drive : TSSTcorpCDDVDW SE-208AB Adapter: 1 ID: 0
Read mode : Secure
Utilize accurate stream : Yes
Defeat audio cache : Yes
Make use of C2 pointers : No
Read offset correction : 6
Overread into Lead-In and Lead-Out : No
Fill up missing offset samples with silence : Yes
Delete leading and trailing silent blocks : No
Null samples used in CRC calculations : Yes
Used interface : Native Win32 interface for Win NT & 2000
Used output format : Monkey's Audio Lossless Encoder
Selected bitrate : High Lossless Compression
Quality : High
Add ID3 tag : Yes
Command line compressor : K:\Program Files (x86)\Exact Audio Copy\Monkeys Audio\Monkey's Audio\MAC.exe
Additional command line options : -6 -V -T "ARTIST=%artist%" -T "TITLE=%title%" -T "ALBUM=%albumtitle%" -T "DATE=%year%" -T "TRACKNUMBER=%tracknr%" -T "GENRE=%genre%" -T "COMMENT=%comment%" -T "BAND=%albuminterpret%" -T "ALBUMARTIST=%albuminterpret%" -T "COMPOSER=%composer%" %haslyrics%--tag-from-file=LYRICS="%lyricsfile%"%haslyrics% -T "DISCNUMBER=%cdnumber%" -T "TOTALDISCS=%totalcds%" -T "TOTALTRACKS=%numtracks%" %hascover%--picture="%coverfile%"%hascover% %source% -o %dest%
TOC of the extracted CD
Track | Start | Length | Start sector | End sector
---------------------------------------------------------
1 | 0:00.33 | 33:55.47 | 33 | 152704
2 | 33:56.05 | 27:48.43 | 152705 | 277847
Range status and errors
Selected range
Filename I:\Foobar-EAC\Martinu - The Greek Passion, Mackerras 1981 CD2.wav
Peak level 76.8 %
Extraction speed 4.6 X
Range quality 100.0 %
Test CRC 35CA0052
Copy CRC 35CA0052
Copy OK
No errors occurred
AccurateRip summary
Track 1 accurately ripped (confidence 2) [348D1F12] (AR v1)
Track 2 accurately ripped (confidence 2) [375BAF41] (AR v1)
All tracks accurately ripped
End of status report
---- CUETools DB Plugin V2.1.3
[CTDB TOCID: Cu9M7RcuUe54ca6q7l7hs3WMVGA-] disk not present in database, Submit result: discs with pregaps not supported in this protocol version
==== Log checksum 0213D5042CD0DB7D12E9C010C14E3E4753D3004BCEA4585CB9CCB8F3A55F51FB ====

Содержание индексной карты (.CUE)

CD1

REM GENRE Opera
REM DATE 1981
REM DISCID 0E0C7302
REM COMMENT "ExactAudioCopy v1.0b3"
PERFORMER "Martinu"
TITLE "The Greek Passion, Mackerras 1981 CD1"
FILE "Martinu - The Greek Passion, Mackerras 1981 CD1.ape" WAVE
TRACK 01 AUDIO
TITLE "Act I"
PERFORMER "Martinu"
INDEX 00 00:00:00
INDEX 01 00:00:33
TRACK 02 AUDIO
TITLE "Act II"
PERFORMER "Martinu"
INDEX 00 28:26:40
INDEX 01 28:31:60

CD2

REM GENRE Opera
REM DATE 1981
REM DISCID 0F0E7802
REM COMMENT "ExactAudioCopy v1.0b3"
PERFORMER "Martinu"
TITLE "The Greek Passion, Mackerras 1981 CD2"
FILE "Martinu - The Greek Passion, Mackerras 1981 CD2.ape" WAVE
TRACK 01 AUDIO
TITLE "Act III"
PERFORMER "Martinu"
INDEX 00 00:00:00
INDEX 01 00:00:33
TRACK 02 AUDIO
TITLE "Act IV"
PERFORMER "Martinu"
INDEX 00 33:51:23
INDEX 01 33:56:05
Доп. информация:
Bohuslav Martinu had condensed and adapted the novel Christ Recrucified by Nikos Kazantzakis to construct the English libretto for his unconventional work, intended for Covent Garden in the 1950s and championed then by its music director, Rafael Kubelik.
In 1957 it was however rejected by the Covent Garden Board for what now seem rather flimsy reasons. Criticisms led to a drastic reworking during the last two years of Bohuslav Martinu's life.
The through-composed second version, given in this recording, was only premiered in Zurich after his death in 1959.
Martinu's method helps to make the text audible and intelligible at all times, dispensing with the need for the text in the liner notes.
It succeeds in getting across moral arguments dressed in religious terms.
Broad themes borrowed from Christian mythology are interwoven with historical and political elements.
An established, but amoral, hierarchy, represented by the priest Grigoris, shores up its authority with pomp.
The refugees, who are led by their priest Folis, represent the counterpart to this established order.
They are dispossessed but moral authority is vested in them.
Caught between these two conflicting poles are the villagers.
For some of them, especially Manolios, the Christ in the village Passion Play and Katerina as their Mary Magdalene, this conflict becomes intensely personal.
For all of them chosen the responsibility towards, and understanding of, the Gospels become more than a play for acting in.
They are led to enact 'The Word'.
This is a 1981 recording of the revised version of Martinu's last opera, not performed in his lifetime, and in the original version not until its triumphant restoration at Covent Garden reviewed by Seen&Heard in April 2000.
This Supraphon recording of The Greek Passion, in the original English, is a great success.
The singers include John Mitchinson, John Tomlinson, Arthur Davies, Geoffrey Moses, Helen Field and many stalwarts of the Welsh company.
The Czech orchestra is in fine form and the playing idiomatic and committed.
The chorus is a chief protagonist in this complex interaction of two religious groups, each with its Priest, the ostracism of refugees firing the drama and the local singers make a vivid contribution.
The words are all admirably clear and the argument easy to follow.
The engineers capture the perspectives and distances well, helping to make it an involving experience for the listener.



Показать сообщения:    

Текущее время: 07-Дек 21:22

Часовой пояс: UTC + 3


Вы не можете начинать темы
Вы не можете отвечать на сообщения
Вы не можете редактировать свои сообщения
Вы не можете удалять свои сообщения
Вы не можете голосовать в опросах
Вы не можете прикреплять файлы к сообщениям
Вы не можете скачивать файлы