(Classical) The Very Best of Franco Corelli [Verdi, Bellini, Leoncavallo, Puccini, Giordano, Mascagni, Gounod, Donizetti] / Франко Корелли Лучшее [Верди, Беллини, Леонкавалло, Пуччини, Джордано, Масканьи, Гуно] (2 CD) - 2003, FLAC (image+.cue)


 

[Цитировать]

The Very Best of Franco Corelli / Франко Корелли. Лучшее (2 CD)
Жанр: Classical
Год издания диска: 2003
Издатель (лейбл): EMI Classics
Аудиокодек: FLAC
Тип рипа: image+.cue
Битрейт аудио: lossless
Продолжительность: 02:33:34
Источник: собственный рип
Наличие сканов в содержимом раздачи: нет
Треклист:
Disc: 1 (75:37)
1. I Puritani, opera: Act 1. A te, o cara
2. Norma, opera: Act 1. Meco all'altar di Venere...Me protegge, me difende
3. Il Trovatore, opera: Act 3. Ah sì, ben mio...Di quella pira
Aida, opera:
4. Act 1. Se quel guerrier io fossi!...Celeste Aida
5. Act 3. Pur ti riveggo, mia dolce Aida
Cavalleria rusticana, opera (melodramma) in 1 act:
6. Intanto amici...Viva il vino spumeggiante
7. Mamma, quel vino è generoso
Pagliacci, opera:
8. Act 1. Recitar!...Vesti la giubba
9. Act 2. No, Pagliaccio non son
Andrea Chénier, opera:
10. Act 1. Colpito qui m'avete...Un dì all'azzuro spazio
11. Act 2. Credo a una possanza arcana
12. Act 3. Legray!...Andrea Chénier!...Sì, fui soldato
13. Act 4. Come un bel dì di maggio
14. Act 4. Vicino a te
Disc: 2 (76:57)
1. Manon Lescaut, opera: Act 1. Donna non vidi mai
Tosca, opera:
2. Act 1. Recondita armonia
3. Act 3. E lucevan le stelle
Turandot, opera:
4. Act 1. Non piangere, Liù...Ah! per l'ultima volta!
5. Act 3. Nessun dorma
6. La favorita, opera: Act 4. Favorita del Re!...Spirto gentil
7. La Gioconda, opera in 4 acts: Act 2. Cielo e mar
8. Adriana Lecouvreur, opera: Act 2. L'anima ho stanca
9. Les Huguenots, grand opera in 5 acts: Act 1. Non lunge della torre...Bianca al par di neve alpina
Roméo et Juliette, opera:
10. Act 1. Ange adorable
11. Act 2. L'amour, l'amour...Ah! lève-toi, soleil!
12. Act 2. O nuit divine!
13. Act 5. C'est là! Salut! tombeau!
14. Serse (Xerxes), opera, HWV 40: Act 1. Fronde tenere...Ombra mai fu (Largo)
15. Ellens Gesang III ('Ave Maria'), song for voice & piano, D. 839 (Op. 52/6)
16. Petite messe solennelle, for soloists, 2 pianos, harmonium & choir: Domine Deus
17. Core 'ngrato (Catari), for voice & orchestra
18. Torna a Surriento, for voice & orchestra
Исполнители:
Franco Corelli / Франко Корелли

Лог создания рипа

CD 1

X Lossless Decoder version 20141129 (148.1)
XLD extraction logfile from 2014-12-19 07:54:00 +0300
Различные исполнители / The Very Best Of Franco Corelli [Disc 1]
Used drive : TSSTcorp CDDVDW SE-S084C (revision TS01)
Media type : Pressed CD
Ripper mode : CDParanoia III 10.2
Disable audio cache : OK for the drive with a cache less than 2750KiB
Make use of C2 pointers : NO
Read offset correction : 6
Max retry count : 20
Gap status : Analyzed, Appended
TOC of the extracted CD
Track | Start | Length | Start sector | End sector
---------------------------------------------------------
1 | 00:00:00 | 03:37:17 | 0 | 16291
2 | 03:37:17 | 06:11:63 | 16292 | 44179
3 | 09:49:05 | 07:14:07 | 44180 | 76736
4 | 17:03:12 | 04:47:15 | 76737 | 98276
5 | 21:50:27 | 12:30:43 | 98277 | 154569
6 | 34:20:70 | 02:57:72 | 154570 | 167916
7 | 37:18:67 | 04:09:55 | 167917 | 186646
8 | 41:28:47 | 03:51:20 | 186647 | 203991
9 | 45:19:67 | 06:26:58 | 203992 | 232999
10 | 51:46:50 | 05:41:60 | 233000 | 258634
11 | 57:28:35 | 03:26:32 | 258635 | 274116
12 | 60:54:67 | 03:19:33 | 274117 | 289074
13 | 64:14:25 | 03:25:52 | 289075 | 304501
14 | 67:40:02 | 07:57:48 | 304502 | 340324
AccurateRip Summary (DiscID: 002868ca-01ab0704-a711b90e)
Track 01 : OK (v1+v2, confidence 10/10)
Track 02 : OK (v1+v2, confidence 10/10)
Track 03 : OK (v1+v2, confidence 11/11)
Track 04 : OK (v1+v2, confidence 10/10)
Track 05 : OK (v1+v2, confidence 10/10)
Track 06 : OK (v1+v2, confidence 10/10)
Track 07 : OK (v1+v2, confidence 10/10)
Track 08 : OK (v1+v2, confidence 11/11)
Track 09 : OK (v1+v2, confidence 11/11)
Track 10 : OK (v1+v2, confidence 11/11)
Track 11 : OK (v1+v2, confidence 10/10)
Track 12 : OK (v1+v2, confidence 9/9)
Track 13 : OK (v1+v2, confidence 11/11)
Track 14 : OK (v1+v2, confidence 11/11)
->All tracks accurately ripped.
All Tracks
Filename : /Users/alcofribasnasier/Music/Export/The Very Best Of Franco Corelli [Disc 1].flac
CRC32 hash (test run) : 11B1646D
CRC32 hash : 11B1646D
CRC32 hash (skip zero) : BDFD12E6
Statistics
Read error : 0
Skipped (treated as error) : 0
Edge jitter error (maybe fixed) : 0
Atom jitter error (maybe fixed) : 0
Drift error (maybe fixed) : 0
Dropped bytes error (maybe fixed) : 0
Duplicated bytes error (maybe fixed) : 0
Inconsistency in error sectors : 0
Track 01
Pre-gap length : 00:02:00
CRC32 hash (test run) : 02618948
CRC32 hash : 02618948
CRC32 hash (skip zero) : 3E862788
AccurateRip v1 signature : ECE04354
AccurateRip v2 signature : A2F7CBAF
->Accurately ripped (v1+v2, confidence 3+7/10)
Statistics
Read error : 0
Skipped (treated as error) : 0
Edge jitter error (maybe fixed) : 0
Atom jitter error (maybe fixed) : 0
Drift error (maybe fixed) : 0
Dropped bytes error (maybe fixed) : 0
Duplicated bytes error (maybe fixed) : 0
Inconsistency in error sectors : 0
Track 02
Pre-gap length : 00:04:25
CRC32 hash (test run) : BB9DD688
CRC32 hash : BB9DD688
CRC32 hash (skip zero) : 48C1EC76
AccurateRip v1 signature : 6E8F4D7E
AccurateRip v2 signature : 4119B479
->Accurately ripped (v1+v2, confidence 3+7/10)
Statistics
Read error : 0
Skipped (treated as error) : 0
Edge jitter error (maybe fixed) : 0
Atom jitter error (maybe fixed) : 0
Drift error (maybe fixed) : 0
Dropped bytes error (maybe fixed) : 0
Duplicated bytes error (maybe fixed) : 0
Inconsistency in error sectors : 0
Track 03
Pre-gap length : 00:04:10
CRC32 hash (test run) : DCB10BAB
CRC32 hash : DCB10BAB
CRC32 hash (skip zero) : 91EA8D33
AccurateRip v1 signature : 50DA23D4
AccurateRip v2 signature : 2B75C427
->Accurately ripped (v1+v2, confidence 4+7/11)
Statistics
Read error : 0
Skipped (treated as error) : 0
Edge jitter error (maybe fixed) : 0
Atom jitter error (maybe fixed) : 0
Drift error (maybe fixed) : 0
Dropped bytes error (maybe fixed) : 0
Duplicated bytes error (maybe fixed) : 0
Inconsistency in error sectors : 0
Track 04
Pre-gap length : 00:04:47
CRC32 hash (test run) : 7DF73163
CRC32 hash : 7DF73163
CRC32 hash (skip zero) : 6576FA2A
AccurateRip v1 signature : 65F7C192
AccurateRip v2 signature : 353800E8
->Accurately ripped (v1+v2, confidence 3+7/10)
Statistics
Read error : 0
Skipped (treated as error) : 0
Edge jitter error (maybe fixed) : 0
Atom jitter error (maybe fixed) : 0
Drift error (maybe fixed) : 0
Dropped bytes error (maybe fixed) : 0
Duplicated bytes error (maybe fixed) : 0
Inconsistency in error sectors : 0
Track 05
Pre-gap length : 00:04:20
CRC32 hash (test run) : CDDBDCC4
CRC32 hash : CDDBDCC4
CRC32 hash (skip zero) : 11A307C5
AccurateRip v1 signature : 1795D44A
AccurateRip v2 signature : CB93E3EE
->Accurately ripped (v1+v2, confidence 3+7/10)
Statistics
Read error : 0
Skipped (treated as error) : 0
Edge jitter error (maybe fixed) : 0
Atom jitter error (maybe fixed) : 0
Drift error (maybe fixed) : 0
Dropped bytes error (maybe fixed) : 0
Duplicated bytes error (maybe fixed) : 0
Inconsistency in error sectors : 0
Track 06
Pre-gap length : 00:04:10
CRC32 hash (test run) : 9BFDFFF5
CRC32 hash : 9BFDFFF5
CRC32 hash (skip zero) : 9BD96530
AccurateRip v1 signature : EB90BEC3
AccurateRip v2 signature : C49B9884
->Accurately ripped (v1+v2, confidence 3+7/10)
Statistics
Read error : 0
Skipped (treated as error) : 0
Edge jitter error (maybe fixed) : 0
Atom jitter error (maybe fixed) : 0
Drift error (maybe fixed) : 0
Dropped bytes error (maybe fixed) : 0
Duplicated bytes error (maybe fixed) : 0
Inconsistency in error sectors : 0
Track 07
Pre-gap length : 00:04:45
CRC32 hash (test run) : BE5247C7
CRC32 hash : BE5247C7
CRC32 hash (skip zero) : 6CC7A31E
AccurateRip v1 signature : D3BB41CA
AccurateRip v2 signature : 8C90AE15
->Accurately ripped (v1+v2, confidence 3+7/10)
Statistics
Read error : 0
Skipped (treated as error) : 0
Edge jitter error (maybe fixed) : 0
Atom jitter error (maybe fixed) : 0
Drift error (maybe fixed) : 0
Dropped bytes error (maybe fixed) : 0
Duplicated bytes error (maybe fixed) : 0
Inconsistency in error sectors : 0
Track 08
Pre-gap length : 00:04:50
CRC32 hash (test run) : E76BED01
CRC32 hash : E76BED01
CRC32 hash (skip zero) : 4D98CB3C
AccurateRip v1 signature : 3E6F4F77
AccurateRip v2 signature : 72C98716
->Accurately ripped (v1+v2, confidence 4+7/11)
Statistics
Read error : 0
Skipped (treated as error) : 0
Edge jitter error (maybe fixed) : 0
Atom jitter error (maybe fixed) : 0
Drift error (maybe fixed) : 0
Dropped bytes error (maybe fixed) : 0
Duplicated bytes error (maybe fixed) : 0
Inconsistency in error sectors : 0
Track 09
Pre-gap length : 00:04:47
CRC32 hash (test run) : 52BB60E6
CRC32 hash : 52BB60E6
CRC32 hash (skip zero) : 2BA6FC07
AccurateRip v1 signature : A90ADF1D
AccurateRip v2 signature : E866987F
->Accurately ripped (v1+v2, confidence 4+7/11)
Statistics
Read error : 0
Skipped (treated as error) : 0
Edge jitter error (maybe fixed) : 0
Atom jitter error (maybe fixed) : 0
Drift error (maybe fixed) : 0
Dropped bytes error (maybe fixed) : 0
Duplicated bytes error (maybe fixed) : 0
Inconsistency in error sectors : 0
Track 10
Pre-gap length : 00:04:20
CRC32 hash (test run) : C86D0B6F
CRC32 hash : C86D0B6F
CRC32 hash (skip zero) : 89F260FB
AccurateRip v1 signature : 6D596FD6
AccurateRip v2 signature : 5A4D3E78
->Accurately ripped (v1+v2, confidence 4+7/11)
Statistics
Read error : 0
Skipped (treated as error) : 0
Edge jitter error (maybe fixed) : 0
Atom jitter error (maybe fixed) : 0
Drift error (maybe fixed) : 0
Dropped bytes error (maybe fixed) : 0
Duplicated bytes error (maybe fixed) : 0
Inconsistency in error sectors : 0
Track 11
Pre-gap length : 00:04:20
CRC32 hash (test run) : DC9FE3F6
CRC32 hash : DC9FE3F6
CRC32 hash (skip zero) : 705E97C6
AccurateRip v1 signature : 449631EE
AccurateRip v2 signature : C871B96B
->Accurately ripped (v1+v2, confidence 3+7/10)
Statistics
Read error : 0
Skipped (treated as error) : 0
Edge jitter error (maybe fixed) : 0
Atom jitter error (maybe fixed) : 0
Drift error (maybe fixed) : 0
Dropped bytes error (maybe fixed) : 0
Duplicated bytes error (maybe fixed) : 0
Inconsistency in error sectors : 0
Track 12
Pre-gap length : 00:04:15
CRC32 hash (test run) : 95A50075
CRC32 hash : 95A50075
CRC32 hash (skip zero) : 38A80659
AccurateRip v1 signature : 8D9186BA
AccurateRip v2 signature : 3C758378
->Accurately ripped (v1+v2, confidence 3+6/9)
Statistics
Read error : 0
Skipped (treated as error) : 0
Edge jitter error (maybe fixed) : 0
Atom jitter error (maybe fixed) : 0
Drift error (maybe fixed) : 0
Dropped bytes error (maybe fixed) : 0
Duplicated bytes error (maybe fixed) : 0
Inconsistency in error sectors : 0
Track 13
Pre-gap length : 00:04:25
CRC32 hash (test run) : BA3598E2
CRC32 hash : BA3598E2
CRC32 hash (skip zero) : FF6F5656
AccurateRip v1 signature : A82CACA8
AccurateRip v2 signature : 2C9B283B
->Accurately ripped (v1+v2, confidence 4+7/11)
Statistics
Read error : 0
Skipped (treated as error) : 0
Edge jitter error (maybe fixed) : 0
Atom jitter error (maybe fixed) : 0
Drift error (maybe fixed) : 0
Dropped bytes error (maybe fixed) : 0
Duplicated bytes error (maybe fixed) : 0
Inconsistency in error sectors : 0
Track 14
Pre-gap length : 00:04:17
CRC32 hash (test run) : 8CB6E66D
CRC32 hash : 8CB6E66D
CRC32 hash (skip zero) : 82FA4A82
AccurateRip v1 signature : 8FA4079B
AccurateRip v2 signature : 0CBE4CDE
->Accurately ripped (v1+v2, confidence 4+7/11)
Statistics
Read error : 0
Skipped (treated as error) : 0
Edge jitter error (maybe fixed) : 0
Atom jitter error (maybe fixed) : 0
Drift error (maybe fixed) : 0
Dropped bytes error (maybe fixed) : 0
Duplicated bytes error (maybe fixed) : 0
Inconsistency in error sectors : 0
No errors occurred
End of status report

CD 2

X Lossless Decoder version 20141129 (148.1)
XLD extraction logfile from 2014-12-19 11:10:34 +0300
Различные исполнители / The Very Best Of Franco Corelli [Disc 2]
Used drive : TSSTcorp CDDVDW SE-S084C (revision TS01)
Media type : Pressed CD
Ripper mode : CDParanoia III 10.2
Disable audio cache : OK for the drive with a cache less than 2750KiB
Make use of C2 pointers : NO
Read offset correction : 6
Max retry count : 20
Gap status : Analyzed, Appended
TOC of the extracted CD
Track | Start | Length | Start sector | End sector
---------------------------------------------------------
1 | 00:00:00 | 02:37:57 | 0 | 11831
2 | 02:37:57 | 03:03:48 | 11832 | 25604
3 | 05:41:30 | 03:28:30 | 25605 | 41234
4 | 09:09:60 | 04:43:55 | 41235 | 62514
5 | 13:53:40 | 02:55:07 | 62515 | 75646
6 | 16:48:47 | 04:57:48 | 75647 | 97969
7 | 21:46:20 | 04:45:37 | 97970 | 119381
8 | 26:31:57 | 02:23:50 | 119382 | 130156
9 | 28:55:32 | 05:24:70 | 130157 | 154526
10 | 34:20:27 | 04:36:60 | 154527 | 175286
11 | 38:57:12 | 04:40:45 | 175287 | 196331
12 | 43:37:57 | 08:23:63 | 196332 | 234119
13 | 52:01:45 | 06:32:70 | 234120 | 263589
14 | 58:34:40 | 04:08:57 | 263590 | 282246
15 | 62:43:22 | 02:25:05 | 282247 | 293126
16 | 65:08:27 | 04:27:03 | 293127 | 313154
17 | 69:35:30 | 03:35:07 | 313155 | 329286
18 | 73:10:37 | 03:46:68 | 329287 | 346304
AccurateRip Summary (DiscID: 003019c0-02929864-f4120912)
Track 01 : OK (v1+v2, confidence 9/9)
Track 02 : OK (v1+v2, confidence 9/9)
Track 03 : OK (v1+v2, confidence 8/8)
Track 04 : OK (v1+v2, confidence 9/9)
Track 05 : OK (v1+v2, confidence 8/8)
Track 06 : OK (v1+v2, confidence 8/8)
Track 07 : OK (v1+v2, confidence 9/9)
Track 08 : OK (v1+v2, confidence 9/9)
Track 09 : OK (v1+v2, confidence 9/9)
Track 10 : OK (v1+v2, confidence 9/9)
Track 11 : OK (v1+v2, confidence 9/9)
Track 12 : OK (v1+v2, confidence 9/9)
Track 13 : OK (v1+v2, confidence 9/9)
Track 14 : OK (v1+v2, confidence 9/9)
Track 15 : OK (v1+v2, confidence 9/9)
Track 16 : OK (v1+v2, confidence 9/9)
Track 17 : OK (v1+v2, confidence 9/9)
Track 18 : OK (v1+v2, confidence 9/9)
->All tracks accurately ripped.
All Tracks
Filename : /Users/alcofribasnasier/Music/Export/The Very Best Of Franco Corelli [Disc 2].flac
CRC32 hash (test run) : C48116A1
CRC32 hash : C48116A1
CRC32 hash (skip zero) : C8F27797
Statistics
Read error : 0
Skipped (treated as error) : 0
Edge jitter error (maybe fixed) : 0
Atom jitter error (maybe fixed) : 0
Drift error (maybe fixed) : 0
Dropped bytes error (maybe fixed) : 0
Duplicated bytes error (maybe fixed) : 0
Inconsistency in error sectors : 0
Track 01
Pre-gap length : 00:02:00
CRC32 hash (test run) : 9C7B692C
CRC32 hash : 9C7B692C
CRC32 hash (skip zero) : 57E34EB1
AccurateRip v1 signature : 11C3DEA0
AccurateRip v2 signature : A29F50E4
->Accurately ripped (v1+v2, confidence 3+6/9)
Statistics
Read error : 0
Skipped (treated as error) : 0
Edge jitter error (maybe fixed) : 0
Atom jitter error (maybe fixed) : 0
Drift error (maybe fixed) : 0
Dropped bytes error (maybe fixed) : 0
Duplicated bytes error (maybe fixed) : 0
Inconsistency in error sectors : 0
Track 02
Pre-gap length : 00:04:30
CRC32 hash (test run) : 161D4AE5
CRC32 hash : 161D4AE5
CRC32 hash (skip zero) : AC44C048
AccurateRip v1 signature : D99315D7
AccurateRip v2 signature : 722E67A2
->Accurately ripped (v1+v2, confidence 3+6/9)
Statistics
Read error : 0
Skipped (treated as error) : 0
Edge jitter error (maybe fixed) : 0
Atom jitter error (maybe fixed) : 0
Drift error (maybe fixed) : 0
Dropped bytes error (maybe fixed) : 0
Duplicated bytes error (maybe fixed) : 0
Inconsistency in error sectors : 0
Track 03
Pre-gap length : 00:03:40
CRC32 hash (test run) : A3E837AE
CRC32 hash : A3E837AE
CRC32 hash (skip zero) : C22ED66E
AccurateRip v1 signature : DFEA9D81
AccurateRip v2 signature : 4CFBF6AF
->Accurately ripped (v1+v2, confidence 3+5/8)
Statistics
Read error : 0
Skipped (treated as error) : 0
Edge jitter error (maybe fixed) : 0
Atom jitter error (maybe fixed) : 0
Drift error (maybe fixed) : 0
Dropped bytes error (maybe fixed) : 0
Duplicated bytes error (maybe fixed) : 0
Inconsistency in error sectors : 0
Track 04
Pre-gap length : 00:04:48
CRC32 hash (test run) : 6D58BC11
CRC32 hash : 6D58BC11
CRC32 hash (skip zero) : 56F4E208
AccurateRip v1 signature : E6CCC7BB
AccurateRip v2 signature : 3CA3B84D
->Accurately ripped (v1+v2, confidence 3+6/9)
Statistics
Read error : 0
Skipped (treated as error) : 0
Edge jitter error (maybe fixed) : 0
Atom jitter error (maybe fixed) : 0
Drift error (maybe fixed) : 0
Dropped bytes error (maybe fixed) : 0
Duplicated bytes error (maybe fixed) : 0
Inconsistency in error sectors : 0
Track 05
Pre-gap length : 00:04:30
CRC32 hash (test run) : E069173D
CRC32 hash : E069173D
CRC32 hash (skip zero) : 4D9B0BA2
AccurateRip v1 signature : 600CA98E
AccurateRip v2 signature : C55AC906
->Accurately ripped (v1+v2, confidence 3+5/8)
Statistics
Read error : 0
Skipped (treated as error) : 0
Edge jitter error (maybe fixed) : 0
Atom jitter error (maybe fixed) : 0
Drift error (maybe fixed) : 0
Dropped bytes error (maybe fixed) : 0
Duplicated bytes error (maybe fixed) : 0
Inconsistency in error sectors : 0
Track 06
Pre-gap length : 00:04:27
CRC32 hash (test run) : 89BEC50D
CRC32 hash : 89BEC50D
CRC32 hash (skip zero) : A34EDF76
AccurateRip v1 signature : 25E51DAE
AccurateRip v2 signature : 239A5920
->Accurately ripped (v1+v2, confidence 3+5/8)
Statistics
Read error : 0
Skipped (treated as error) : 0
Edge jitter error (maybe fixed) : 0
Atom jitter error (maybe fixed) : 0
Drift error (maybe fixed) : 0
Dropped bytes error (maybe fixed) : 0
Duplicated bytes error (maybe fixed) : 0
Inconsistency in error sectors : 0
Track 07
Pre-gap length : 00:04:15
CRC32 hash (test run) : 96480660
CRC32 hash : 96480660
CRC32 hash (skip zero) : 59684835
AccurateRip v1 signature : 103BBDC0
AccurateRip v2 signature : B2816FDA
->Accurately ripped (v1+v2, confidence 3+6/9)
Statistics
Read error : 0
Skipped (treated as error) : 0
Edge jitter error (maybe fixed) : 0
Atom jitter error (maybe fixed) : 0
Drift error (maybe fixed) : 0
Dropped bytes error (maybe fixed) : 0
Duplicated bytes error (maybe fixed) : 0
Inconsistency in error sectors : 0
Track 08
Pre-gap length : 00:04:05
CRC32 hash (test run) : 3BE2A6CA
CRC32 hash : 3BE2A6CA
CRC32 hash (skip zero) : FF3F9329
AccurateRip v1 signature : B9483CED
AccurateRip v2 signature : 7CCD717A
->Accurately ripped (v1+v2, confidence 3+6/9)
Statistics
Read error : 0
Skipped (treated as error) : 0
Edge jitter error (maybe fixed) : 0
Atom jitter error (maybe fixed) : 0
Drift error (maybe fixed) : 0
Dropped bytes error (maybe fixed) : 0
Duplicated bytes error (maybe fixed) : 0
Inconsistency in error sectors : 0
Track 09
Pre-gap length : 00:04:45
CRC32 hash (test run) : 98D573D1
CRC32 hash : 98D573D1
CRC32 hash (skip zero) : 1356485F
AccurateRip v1 signature : 311D03A3
AccurateRip v2 signature : 16E38FEE
->Accurately ripped (v1+v2, confidence 3+6/9)
Statistics
Read error : 0
Skipped (treated as error) : 0
Edge jitter error (maybe fixed) : 0
Atom jitter error (maybe fixed) : 0
Drift error (maybe fixed) : 0
Dropped bytes error (maybe fixed) : 0
Duplicated bytes error (maybe fixed) : 0
Inconsistency in error sectors : 0
Track 10
Pre-gap length : 00:04:07
CRC32 hash (test run) : 411B540B
CRC32 hash : 411B540B
CRC32 hash (skip zero) : C2EFCD3A
AccurateRip v1 signature : F6B1774C
AccurateRip v2 signature : 2D050506
->Accurately ripped (v1+v2, confidence 3+6/9)
Statistics
Read error : 0
Skipped (treated as error) : 0
Edge jitter error (maybe fixed) : 0
Atom jitter error (maybe fixed) : 0
Drift error (maybe fixed) : 0
Dropped bytes error (maybe fixed) : 0
Duplicated bytes error (maybe fixed) : 0
Inconsistency in error sectors : 0
Track 11
Pre-gap length : 00:04:17
CRC32 hash (test run) : C15CAB41
CRC32 hash : C15CAB41
CRC32 hash (skip zero) : 4F5FA002
AccurateRip v1 signature : 247E9CBD
AccurateRip v2 signature : 18F6AFEB
->Accurately ripped (v1+v2, confidence 3+6/9)
Statistics
Read error : 0
Skipped (treated as error) : 0
Edge jitter error (maybe fixed) : 0
Atom jitter error (maybe fixed) : 0
Drift error (maybe fixed) : 0
Dropped bytes error (maybe fixed) : 0
Duplicated bytes error (maybe fixed) : 0
Inconsistency in error sectors : 0
Track 12
Pre-gap length : 00:05:00
CRC32 hash (test run) : 0CDE9AE7
CRC32 hash : 0CDE9AE7
CRC32 hash (skip zero) : 30859D07
AccurateRip v1 signature : 983BA6E4
AccurateRip v2 signature : BB328AFF
->Accurately ripped (v1+v2, confidence 3+6/9)
Statistics
Read error : 0
Skipped (treated as error) : 0
Edge jitter error (maybe fixed) : 0
Atom jitter error (maybe fixed) : 0
Drift error (maybe fixed) : 0
Dropped bytes error (maybe fixed) : 0
Duplicated bytes error (maybe fixed) : 0
Inconsistency in error sectors : 0
Track 13
Pre-gap length : 00:03:50
CRC32 hash (test run) : 3C945411
CRC32 hash : 3C945411
CRC32 hash (skip zero) : 7BF30508
AccurateRip v1 signature : D0BE6620
AccurateRip v2 signature : 3D411414
->Accurately ripped (v1+v2, confidence 3+6/9)
Statistics
Read error : 0
Skipped (treated as error) : 0
Edge jitter error (maybe fixed) : 0
Atom jitter error (maybe fixed) : 0
Drift error (maybe fixed) : 0
Dropped bytes error (maybe fixed) : 0
Duplicated bytes error (maybe fixed) : 0
Inconsistency in error sectors : 0
Track 14
Pre-gap length : 00:05:18
CRC32 hash (test run) : 7334602C
CRC32 hash : 7334602C
CRC32 hash (skip zero) : 16231D02
AccurateRip v1 signature : 73BFCF9A
AccurateRip v2 signature : AB65B9AB
->Accurately ripped (v1+v2, confidence 3+6/9)
Statistics
Read error : 0
Skipped (treated as error) : 0
Edge jitter error (maybe fixed) : 0
Atom jitter error (maybe fixed) : 0
Drift error (maybe fixed) : 0
Dropped bytes error (maybe fixed) : 0
Duplicated bytes error (maybe fixed) : 0
Inconsistency in error sectors : 0
Track 15
Pre-gap length : 00:04:20
CRC32 hash (test run) : 4BEB8990
CRC32 hash : 4BEB8990
CRC32 hash (skip zero) : 8A3CFC5B
AccurateRip v1 signature : 4016D2A6
AccurateRip v2 signature : 42E9A131
->Accurately ripped (v1+v2, confidence 3+6/9)
Statistics
Read error : 0
Skipped (treated as error) : 0
Edge jitter error (maybe fixed) : 0
Atom jitter error (maybe fixed) : 0
Drift error (maybe fixed) : 0
Dropped bytes error (maybe fixed) : 0
Duplicated bytes error (maybe fixed) : 0
Inconsistency in error sectors : 0
Track 16
Pre-gap length : 00:04:65
CRC32 hash (test run) : 5D9E2EE1
CRC32 hash : 5D9E2EE1
CRC32 hash (skip zero) : A099545F
AccurateRip v1 signature : 20E8CB77
AccurateRip v2 signature : CA8E0E64
->Accurately ripped (v1+v2, confidence 3+6/9)
Statistics
Read error : 0
Skipped (treated as error) : 0
Edge jitter error (maybe fixed) : 0
Atom jitter error (maybe fixed) : 0
Drift error (maybe fixed) : 0
Dropped bytes error (maybe fixed) : 0
Duplicated bytes error (maybe fixed) : 0
Inconsistency in error sectors : 0
Track 17
Pre-gap length : 00:04:45
CRC32 hash (test run) : ED918D4F
CRC32 hash : ED918D4F
CRC32 hash (skip zero) : 44B352A3
AccurateRip v1 signature : C8C7C556
AccurateRip v2 signature : AAA4CFB8
->Accurately ripped (v1+v2, confidence 3+6/9)
Statistics
Read error : 0
Skipped (treated as error) : 0
Edge jitter error (maybe fixed) : 0
Atom jitter error (maybe fixed) : 0
Drift error (maybe fixed) : 0
Dropped bytes error (maybe fixed) : 0
Duplicated bytes error (maybe fixed) : 0
Inconsistency in error sectors : 0
Track 18
Pre-gap length : 00:04:62
CRC32 hash (test run) : F114A04A
CRC32 hash : F114A04A
CRC32 hash (skip zero) : 759D2DED
AccurateRip v1 signature : 091E1290
AccurateRip v2 signature : FF6DBF09
->Accurately ripped (v1+v2, confidence 3+6/9)
Statistics
Read error : 0
Skipped (treated as error) : 0
Edge jitter error (maybe fixed) : 0
Atom jitter error (maybe fixed) : 0
Drift error (maybe fixed) : 0
Dropped bytes error (maybe fixed) : 0
Duplicated bytes error (maybe fixed) : 0
Inconsistency in error sectors : 0
No errors occurred
End of status report

Содержание индексной карты (.CUE)

CD 1

TITLE "The Very Best Of Franco Corelli [Disc 1]"
CATALOG 0724358508529
REM GENRE "Classical"
REM DISCNUMBER 1
REM TOTALDISCS 2
REM DISCID A711B90E
REM COMPILATION TRUE
FILE "The Very Best Of Franco Corelli [Disc 1].flac" WAVE
TRACK 01 AUDIO
TITLE "A Te, O Cara"
PERFORMER "Franco Corelli/Philharmonia Orchestra/Franco Ferraris"
SONGWRITER "Vincenzo Bellini"
ISRC GBAYC0300503
REM DATE 1962
INDEX 01 00:00:00
TRACK 02 AUDIO
TITLE "Meco All' Altar Di Venere... Me Protegge, Me Difende"
PERFORMER "Franco Corelli, Piero Di Palma, Tullio Serafin, Orchestra Del Teatro"
SONGWRITER "Vincenzo Bellini"
ISRC GBAYC8904395
REM DATE 1961
INDEX 00 03:32:67
INDEX 01 03:37:17
TRACK 03 AUDIO
TITLE "Ah Si, Ben mio...De Quella Pira"
PERFORMER "Franco Corelli, Thomas Schippers, Orchestra Del Teatro Dell'Opera Di R"
SONGWRITER "Verdi, Giuseppe (1813-1901)"
ISRC GBAYC9005165
REM DATE 1965
INDEX 00 09:44:70
INDEX 01 09:49:05
TRACK 04 AUDIO
TITLE "Se Quel Guerrier Io Fossi!...Celeste Aida"
PERFORMER "Franco Corelli, Grace Bumbry, Zubin Mehta, Orchestra Del Teatro Dell'Opera Di R"
SONGWRITER "Verdi, Giuseppe (1813-1901)"
ISRC GBAYC8904401
REM DATE 1967
INDEX 00 16:58:40
INDEX 01 17:03:12
TRACK 05 AUDIO
TITLE "Pur Ti Riveggo, Mia Dolce Aida"
PERFORMER "Franco Corelli, Birgit Nilsson, Grace Bumbry, Zubin Mehta, Orchestra Del Teatro Dell'Opera Di R"
SONGWRITER "Verdi, Giuseppe (1813-1901)"
ISRC GBAYC8901382
REM DATE 1967
INDEX 00 21:46:07
INDEX 01 21:50:27
TRACK 06 AUDIO
TITLE "Intanto Amici... Viva Il Vino Spumeggiante"
PERFORMER "Franco Corelli, Adriana Lazzarini, Gabriele Santini, Orchestra Del Teatro Dell'Opera Di R"
SONGWRITER "Mascagni, Pietro (1863-1945)"
ISRC GBAYC9103353
REM DATE 1963
INDEX 00 34:16:60
INDEX 01 34:20:70
TRACK 07 AUDIO
TITLE "Mascagni: Cavalleria Rusticana - Mamma, Quel Vino È Generoso"
PERFORMER "Franco Corelli; Gabriele Santini: Rome Opera Orchestra & Chorus"
SONGWRITER "Pietro Mascagni"
ISRC GBAYC9103355
REM DATE 1963
INDEX 00 37:14:22
INDEX 01 37:18:67
TRACK 08 AUDIO
TITLE "Leoncavallo: Pagliacci - Act 1: Recitar!...Vesti La Giubba"
PERFORMER "Franco Corelli; Lovro Von Matačić: Orchestra & Chorus Of La Scala Milan"
SONGWRITER "Ruggero Leoncavallo"
ISRC GBAYC9102276
REM DATE 1961
INDEX 00 41:23:72
INDEX 01 41:28:47
TRACK 09 AUDIO
TITLE "No, Pagliaccio Non Son"
PERFORMER "Franco Corelli, Lucine Amara, Tito Gobbi, Lovro Von Matacic, Orchestra Del Teatro Dell'Opera Di R"
SONGWRITER "Leoncavallo, Ruggero (1857-1919)"
ISRC GBAYC9104902
REM DATE 1961
INDEX 00 45:15:20
INDEX 01 45:19:67
TRACK 10 AUDIO
TITLE "Giordano: Andrea Chenier - Act 1: Colpito Qui M'Avete...Un Dì All'Azzuro Spazio"
PERFORMER "Franco Corelli; Gabriele Santini: Rome Opera Orchestra"
SONGWRITER "Umberto Giordano"
ISRC GBAYC9402516
REM DATE 1964
INDEX 00 51:42:30
INDEX 01 51:46:50
TRACK 11 AUDIO
TITLE "Credo A Una Possanza Arcana"
PERFORMER "Franco Corelli, Giuseppe Modesti, Gabriele Santini, Orchestra Del Teatro Dell'Opera Di R"
SONGWRITER "Giordano, Umberto (1867 - 1948)"
ISRC GBAYC9402676
REM DATE 1964
INDEX 00 57:24:15
INDEX 01 57:28:35
TRACK 12 AUDIO
TITLE "Giordano: Andrea Chénier - Act 3: Andrea Chenier!...Coraggio! Sì, Fui Soldato"
PERFORMER "Franco Corelli; Gabriele Santini: Rome Opera Orchestra"
SONGWRITER "Umberto Giordano"
ISRC GBAYC9401131
REM DATE 1964
INDEX 00 60:50:52
INDEX 01 60:54:67
TRACK 13 AUDIO
TITLE "Giordano: Andrea Chénier - Act 4: Come Un Bel Dì Di Maggio"
PERFORMER "Franco Corelli; Gabriele Santini: Rome Opera Orchestra"
SONGWRITER "Umberto Giordano"
ISRC GBAYC9401135
REM DATE 1964
INDEX 00 64:10:00
INDEX 01 64:14:25
TRACK 14 AUDIO
TITLE "Giordano: Andrea Chénier - Vicino A Te"
PERFORMER "Franco Corelli, Mario Sereni, Etc.; Gabriele Santini: Rome Opera Orchestra & Chorus"
SONGWRITER "Umberto Giordano"
ISRC GBAYC9402677
REM DATE 1964
INDEX 00 67:35:60
INDEX 01 67:40:02

CD 2

TITLE "The Very Best Of Franco Corelli [Disc 2]"
CATALOG 0724358508628
REM GENRE "Classical"
REM DISCNUMBER 2
REM TOTALDISCS 2
REM DISCID F4120912
REM COMPILATION TRUE
FILE "The Very Best Of Franco Corelli [Disc 2].flac" WAVE
TRACK 01 AUDIO
TITLE "Puccini: Manon Lescaut - Act 1: Donna Non Vidi Mai"
PERFORMER "Franco Corelli; Franco Ferraris: Pro Arte Orchestra"
SONGWRITER "Giacomo Puccini"
ISRC GBAYC9704937
REM DATE 1962
INDEX 01 00:00:00
TRACK 02 AUDIO
TITLE "Recondita Armonia"
PERFORMER "Franco Corelli/Philharmonia Orchestra/Franco Ferraris"
SONGWRITER "Giacomo Puccini"
ISRC GBAYC9704941
REM DATE 1962
INDEX 00 02:33:27
INDEX 01 02:37:57
TRACK 03 AUDIO
TITLE "E Lucevan Le Stelle"
PERFORMER "Franco Corelli/Philharmonia Orchestra/Franco Ferraris"
SONGWRITER "Giacomo Puccini"
ISRC GBAYC9704943
REM DATE 1962
INDEX 00 05:37:65
INDEX 01 05:41:30
TRACK 04 AUDIO
TITLE "Non Piangere, Liu... Ah! Per L'ultima Volta!"
PERFORMER "Franco Corelli, Renata Scotto, Francesco Molinari Pradelli, Orchestre Du Theatre National De L'Opera"
SONGWRITER "Giacomo Puccini"
ISRC GBAYC8805391
REM DATE 1966
INDEX 00 09:05:12
INDEX 01 09:09:60
TRACK 05 AUDIO
TITLE "Nessun Dorma"
PERFORMER "Franco Corelli, Piero Di Palma, Francesco Molinari Pradelli, Orchestre Du Theatre National De L'Opera"
SONGWRITER "Giacomo Puccini"
ISRC GBAYC8800934
REM DATE 1966
INDEX 00 13:49:10
INDEX 01 13:53:40
TRACK 06 AUDIO
TITLE "Donizetti: La Favorita - Act 4: Favorita Del Re!...Spirito Gentil"
PERFORMER "Franco Corelli; Franco Ferraris: Philharmonia Orchestra"
SONGWRITER "Gaetano Donizetti"
ISRC GBAYC9704913
REM DATE 1962
INDEX 00 16:44:20
INDEX 01 16:48:47
TRACK 07 AUDIO
TITLE "Ponchielli: La Gioconda - Act 2: Cielo E Mar!"
PERFORMER "Franco Corelli; Franco Ferraris: Pro Arte Orchestra"
SONGWRITER "Amilcare Ponchielli"
ISRC GBAYC9704915
REM DATE 1962
INDEX 00 21:42:05
INDEX 01 21:46:20
TRACK 08 AUDIO
TITLE "L'anima Ho Stanca"
PERFORMER "Franco Corelli/Philharmonia Orchestra/Franco Ferraris"
SONGWRITER "Vincenzo Bellini/George Frideric Handel/Charles Gounod/Giacomo Puccini/Giuseppe Verdi/Pietro Mascagni/Franz Schubert/Ruggero Leoncavallo/Umberto Giordano"
ISRC GBAYC9704939
REM DATE 1962
INDEX 00 26:27:52
INDEX 01 26:31:57
TRACK 09 AUDIO
TITLE "Non Lunge Della Torre... Bianca Al Par Di Neve Alpina"
PERFORMER "Franco Corelli/Philharmonia Orchestra/Franco Ferraris"
SONGWRITER "Vincenzo Bellini/Ruggero Leoncavallo/Giacomo Puccini/Giuseppe Verdi/Charles Gounod/Franz Schubert/Pietro Mascagni/Umberto Giordano/George Frideric Handel"
ISRC GBAYC9704945
REM DATE 1969
INDEX 00 28:50:62
INDEX 01 28:55:32
TRACK 10 AUDIO
TITLE "Ange Adorable"
PERFORMER "Franco Corelli, Mirella Freni, Alain Lombard, Orchestre Du Theatre National De L'Opera"
SONGWRITER "Charles Gounod"
ISRC GBAYC9402623
REM DATE 1969
INDEX 00 34:16:20
INDEX 01 34:20:27
TRACK 11 AUDIO
TITLE "Gounod: Roméo Et Juliette - Act 2: L'Amour! L'Amour!...Ah! Leve-Toi Soleil!"
PERFORMER "Franco Corelli; Alain Lombard: Paris National Opera Orchestra"
SONGWRITER "Charles Gounod"
ISRC GBAYC9402627
REM DATE 1969
INDEX 00 38:52:70
INDEX 01 38:57:12
TRACK 12 AUDIO
TITLE "O Nuit Divine!"
PERFORMER "Franco Corelli, Mirella Freni, Alain Lombard, Orchestre Du Theatre National De L'Opera"
SONGWRITER "Charles Gounod"
ISRC GBAYC9402631
REM DATE 1969
INDEX 00 43:32:57
INDEX 01 43:37:57
TRACK 13 AUDIO
TITLE "C'est La! Salut! Tombeau!"
PERFORMER "Franco Corelli, Alain Lombard, Orchestre Du Theatre National De L'Opera"
SONGWRITER "Charles Gounod"
ISRC GBAYC9402653
REM DATE 1969
INDEX 00 51:57:70
INDEX 01 52:01:45
TRACK 14 AUDIO
TITLE "Fronde Tenere... Ombra Mai Fu"
PERFORMER "Franco Corelli/Orchestra/Raffaele Mingardo"
SONGWRITER "George Frideric Handel"
ISRC GBAYC9602991
REM DATE 1964
INDEX 00 58:29:22
INDEX 01 58:34:40
TRACK 15 AUDIO
TITLE "Ave Maria"
PERFORMER "Franco Corelli/Orchestra/Raffaele Mingardo"
SONGWRITER "Charles Gounod/Ruggero Leoncavallo/Umberto Giordano/Giacomo Puccini/Pietro Mascagni/George Frideric Handel/Vincenzo Bellini/Giuseppe Verdi/Franz Schubert"
ISRC GBAYC9602988
REM DATE 1964
INDEX 00 62:39:02
INDEX 01 62:43:22
TRACK 16 AUDIO
TITLE "Domine Deus"
PERFORMER "Franco Corelli/Orchestra/Raffaele Mingardo"
SONGWRITER "Giacomo Puccini/Giuseppe Verdi/Ruggero Leoncavallo/Umberto Giordano/Pietro Mascagni/Charles Gounod/Franz Schubert/George Frideric Handel/Vincenzo Bellini"
ISRC GBAYC9603001
REM DATE 1964
INDEX 00 65:03:37
INDEX 01 65:08:27
TRACK 17 AUDIO
TITLE "Core 'Ngrato"
PERFORMER "Franco Corelli/Orchestra/Raffaele Mingardo"
SONGWRITER "Umberto Giordano/Giacomo Puccini/Charles Gounod/Pietro Mascagni/Franz Schubert/George Frideric Handel/Ruggero Leoncavallo/Vincenzo Bellini/Giuseppe Verdi"
ISRC GBAYC9601213
REM DATE 1964
INDEX 00 69:30:60
INDEX 01 69:35:30
TRACK 18 AUDIO
TITLE "Torna A Surriento"
PERFORMER "Franco Corelli/Orchestra/Raffaele Mingardo"
SONGWRITER "George Frideric Handel/Charles Gounod/Ruggero Leoncavallo/Vincenzo Bellini/Giacomo Puccini/Pietro Mascagni/Umberto Giordano/Franz Schubert/Giuseppe Verdi"
ISRC GBAYC9602834
REM DATE 1964
INDEX 00 73:05:50
INDEX 01 73:10:37

Скриншот спектра частот




Показать сообщения:    

Текущее время: 08-Дек 14:57

Часовой пояс: UTC + 3


Вы не можете начинать темы
Вы не можете отвечать на сообщения
Вы не можете редактировать свои сообщения
Вы не можете удалять свои сообщения
Вы не можете голосовать в опросах
Вы не можете прикреплять файлы к сообщениям
Вы не можете скачивать файлы