(Opera) Dvorak - Vanda (Petrova, Blachut, Kalas, Rujan, Tikalova - Prague Radio Symphony, Dyk) - 2003, APE (image+.cue) lossless


 

[Цитировать]

Antonín Dvorák - Vanda
Жанр: Opera
Страна-производитель диска: Germany
Год издания диска: 2003
Издатель (лейбл): Cantus Classics
Номер по каталогу: 5.00413
Дата записи: 1951
Аудиокодек: APE
Тип рипа: image+.cue
Битрейт аудио: lossless
Продолжительность: 43'34+71'27
Источник: собственный рип
Наличие сканов в содержимом раздачи: да
Треклист:

CD1

1. Ouverture
2. Act 1 Slunko sviti, Slunko hreje
3. Act 1 Povez mi, Vando
4. Act 1 Bozeno mila, samoty poprej nam
5. Act 1 Mocni Vy bohove
6. Act 1 Muj knize a pan
7. Act 1 Krakova dcero
8. Act 1 V tvou vetsbu verim
9. Act 1 Aj, hledte, hvezda nam vychazi
10. Act 1 Pred vami, pred bohy

CD2

1. Akt 2 Na velebnem trunu
2. Akt 2 Zde jest Vitomir
3. Akt 2 Prichazi na nas nova strasne tize
4. Akt 2 Jak lita mes!
5. Akt 3 Cernoboha sidla tu
6. Akt 3 Ach, Vanda, ma duse draha
7. Akt 3 Jiz pulnoc nastava
8. Akt 3 Zde pohanska d'ablice
9. Akt 4 Ne mir, alie valky zar
10. Akt 4 My pak o vitezstvi
11. Akt 4 Prvni diky slusi bohum vznest
12. Akt 4 Verni a statecni
Исполнители:
Antonín Dvorák - Vanda
Opera in 5 Acts
Libretto:Vaclav Benes-Sumavsky after Julian Surzycki
Vanda - Drahomira Tikalova (Soprano)
Bozena - Stefa Petrova (Mezzo Soprano),
Slavoy - Benno Blachut (Tenor)
High Priest - Karel Kalas (Bass)
Lumir - Borek Rujan (Baritone)
Homena - Ludmila Hanzalíková (Mezzo Soprano)
Roderich - Vaclav Bednar (Baritone)
Messenger - Zdenek Jankovsky (Tenor)
Prague Radio Chorus
Prague Radio Symphony
Frantisek Dyk
Date of Recording: 1951
Language: Czech

Лог создания рипа

CD1

Exact Audio Copy V1.0 beta 3 from 29. August 2011
EAC extraction logfile from 27. July 2013, 19:02
Dvorak / Vanda, Dyk 1951 CD1
Used drive : TSSTcorpCDDVDW SH-216AB Adapter: 0 ID: 1
Read mode : Secure
Utilize accurate stream : Yes
Defeat audio cache : Yes
Make use of C2 pointers : No
Read offset correction : 6
Overread into Lead-In and Lead-Out : No
Fill up missing offset samples with silence : Yes
Delete leading and trailing silent blocks : No
Null samples used in CRC calculations : Yes
Used interface : Native Win32 interface for Win NT & 2000
Used output format : Monkey's Audio Lossless Encoder
Selected bitrate : High Lossless Compression
Quality : High
Add ID3 tag : Yes
Command line compressor : K:\Program Files (x86)\Exact Audio Copy\Monkeys Audio\Monkey's Audio\MAC.exe
Additional command line options : -6 -V -T "ARTIST=%artist%" -T "TITLE=%title%" -T "ALBUM=%albumtitle%" -T "DATE=%year%" -T "TRACKNUMBER=%tracknr%" -T "GENRE=%genre%" -T "COMMENT=%comment%" -T "BAND=%albuminterpret%" -T "ALBUMARTIST=%albuminterpret%" -T "COMPOSER=%composer%" %haslyrics%--tag-from-file=LYRICS="%lyricsfile%"%haslyrics% -T "DISCNUMBER=%cdnumber%" -T "TOTALDISCS=%totalcds%" -T "TOTALTRACKS=%numtracks%" %hascover%--picture="%coverfile%"%hascover% %source% -o %dest%
TOC of the extracted CD
Track | Start | Length | Start sector | End sector
---------------------------------------------------------
1 | 0:00.32 | 8:49.13 | 32 | 39719
2 | 8:49.45 | 4:25.62 | 39720 | 59656
3 | 13:15.32 | 3:14.65 | 59657 | 74271
4 | 16:30.22 | 3:51.40 | 74272 | 91636
5 | 20:21.62 | 2:33.23 | 91637 | 103134
6 | 22:55.10 | 4:21.72 | 103135 | 122781
7 | 27:17.07 | 5:55.05 | 122782 | 149411
8 | 33:12.12 | 3:11.15 | 149412 | 163751
9 | 36:23.27 | 2:57.23 | 163752 | 177049
10 | 39:20.50 | 4:13.57 | 177050 | 196081
Range status and errors
Selected range
Filename I:\Foobar-EAC\Dvorak - Vanda, Dyk 1951 CD1.wav
Peak level 88.2 %
Extraction speed 3.0 X
Range quality 100.0 %
Test CRC DCD39BC2
Copy CRC DCD39BC2
Copy OK
No errors occurred
AccurateRip summary
Track 1 not present in database
Track 2 not present in database
Track 3 not present in database
Track 4 not present in database
Track 5 not present in database
Track 6 not present in database
Track 7 not present in database
Track 8 not present in database
Track 9 not present in database
Track 10 not present in database
None of the tracks are present in the AccurateRip database
End of status report
==== Log checksum 911DB28ACB6E12935EBB76BBD97860A96763654A4DC42C18D455426EBD4303E1 ====

CD2

Exact Audio Copy V1.0 beta 3 from 29. August 2011
EAC extraction logfile from 27. July 2013, 19:28
Dvorak / Vanda, Dyk 1951 CD2
Used drive : TSSTcorpCDDVDW SE-208AB Adapter: 1 ID: 0
Read mode : Secure
Utilize accurate stream : Yes
Defeat audio cache : Yes
Make use of C2 pointers : No
Read offset correction : 6
Overread into Lead-In and Lead-Out : No
Fill up missing offset samples with silence : Yes
Delete leading and trailing silent blocks : No
Null samples used in CRC calculations : Yes
Used interface : Native Win32 interface for Win NT & 2000
Used output format : Monkey's Audio Lossless Encoder
Selected bitrate : High Lossless Compression
Quality : High
Add ID3 tag : Yes
Command line compressor : K:\Program Files (x86)\Exact Audio Copy\Monkeys Audio\Monkey's Audio\MAC.exe
Additional command line options : -6 -V -T "ARTIST=%artist%" -T "TITLE=%title%" -T "ALBUM=%albumtitle%" -T "DATE=%year%" -T "TRACKNUMBER=%tracknr%" -T "GENRE=%genre%" -T "COMMENT=%comment%" -T "BAND=%albuminterpret%" -T "ALBUMARTIST=%albuminterpret%" -T "COMPOSER=%composer%" %haslyrics%--tag-from-file=LYRICS="%lyricsfile%"%haslyrics% -T "DISCNUMBER=%cdnumber%" -T "TOTALDISCS=%totalcds%" -T "TOTALTRACKS=%numtracks%" %hascover%--picture="%coverfile%"%hascover% %source% -o %dest%
TOC of the extracted CD
Track | Start | Length | Start sector | End sector
---------------------------------------------------------
1 | 0:00.32 | 5:33.55 | 32 | 25061
2 | 5:34.12 | 8:10.68 | 25062 | 61879
3 | 13:45.05 | 8:07.12 | 61880 | 98416
4 | 21:52.17 | 3:23.65 | 98417 | 113706
5 | 25:16.07 | 5:01.40 | 113707 | 136321
6 | 30:17.47 | 2:13.33 | 136322 | 146329
7 | 32:31.05 | 3:31.47 | 146330 | 162201
8 | 36:02.52 | 8:36.30 | 162202 | 200931
9 | 44:39.07 | 9:15.25 | 200932 | 242581
10 | 53:54.32 | 5:02.25 | 242582 | 265256
11 | 58:56.57 | 2:25.65 | 265257 | 276196
12 | 61:22.47 | 10:04.60 | 276197 | 321556
Range status and errors
Selected range
Filename I:\Foobar-EAC\Dvorak - Vanda, Dyk 1951 CD2.wav
Peak level 89.8 %
Extraction speed 2.2 X
Range quality 99.9 %
Test CRC 672D953D
Copy CRC 672D953D
Copy OK
No errors occurred
AccurateRip summary
Track 1 not present in database
Track 2 not present in database
Track 3 not present in database
Track 4 not present in database
Track 5 not present in database
Track 6 not present in database
Track 7 not present in database
Track 8 not present in database
Track 9 not present in database
Track 10 not present in database
Track 11 not present in database
Track 12 not present in database
None of the tracks are present in the AccurateRip database
End of status report
==== Log checksum 10D3901898A0178D24ACD492750E448911F3BE2B3F7C523C2D05A49C3B3462C0 ====

Содержание индексной карты (.CUE)

CD1

REM GENRE Opera
REM DATE 1951
REM DISCID 970A360A
REM COMMENT "ExactAudioCopy v1.0b3"
PERFORMER "Dvorak"
TITLE "Vanda, Dyk 1951 CD1"
FILE "Dvorak - Vanda, Dyk 1951 CD1.ape" WAVE
TRACK 01 AUDIO
TITLE "Ouverture"
PERFORMER "Dvorak"
ISRC 000000000000
INDEX 00 00:00:00
INDEX 01 00:00:32
TRACK 02 AUDIO
TITLE "Slunko sviti, Slunko hreje"
PERFORMER "Dvorak"
ISRC 000000000000
INDEX 01 08:49:45
TRACK 03 AUDIO
TITLE "Povez mi, Vando"
PERFORMER "Dvorak"
ISRC 000000000000
INDEX 01 13:15:32
TRACK 04 AUDIO
TITLE "Bozeno mila, samoty poprej nam"
PERFORMER "Dvorak"
ISRC 000000000000
INDEX 01 16:30:22
TRACK 05 AUDIO
TITLE "Mocni Vy bohove"
PERFORMER "Dvorak"
ISRC 000000000000
INDEX 01 20:21:62
TRACK 06 AUDIO
TITLE "Muj knize a pan"
PERFORMER "Dvorak"
ISRC 000000000000
INDEX 01 22:55:10
TRACK 07 AUDIO
TITLE "Krakova dcero"
PERFORMER "Dvorak"
ISRC 000000000000
INDEX 01 27:17:07
TRACK 08 AUDIO
TITLE "V tvou vetsbu verim"
PERFORMER "Dvorak"
ISRC 000000000000
INDEX 01 33:12:12
TRACK 09 AUDIO
TITLE "Aj, hledte, hvezda nam vychazi"
PERFORMER "Dvorak"
ISRC 000000000000
INDEX 01 36:23:27
TRACK 10 AUDIO
TITLE "Pred vami, pred bohy"
PERFORMER "Dvorak"
ISRC 000000000000
INDEX 01 39:20:50

CD2

REM GENRE Opera
REM DATE 1951
REM DISCID B010BF0C
REM COMMENT "ExactAudioCopy v1.0b3"
PERFORMER "Dvorak"
TITLE "Vanda, Dyk 1951 CD2"
FILE "Dvorak - Vanda, Dyk 1951 CD2.ape" WAVE
TRACK 01 AUDIO
TITLE "Akt 2 Na velebnem trunu"
PERFORMER "Dvorak"
ISRC 000000000000
INDEX 00 00:00:00
INDEX 01 00:00:32
TRACK 02 AUDIO
TITLE "Akt 2 Zde jest Vitomir"
PERFORMER "Dvorak"
ISRC 000000000000
INDEX 01 05:34:12
TRACK 03 AUDIO
TITLE "Akt 2 Prichazi na nas nova strasne tize"
PERFORMER "Dvorak"
ISRC 000000000000
INDEX 01 13:45:05
TRACK 04 AUDIO
TITLE "Akt 2 Jak lita mes!"
PERFORMER "Dvorak"
ISRC 000000000000
INDEX 01 21:52:17
TRACK 05 AUDIO
TITLE "Akt 3 Cernoboha sidla tu"
PERFORMER "Dvorak"
ISRC 000000000000
INDEX 01 25:16:07
TRACK 06 AUDIO
TITLE "Akt 3 Ach, Vanda, ma duse draha"
PERFORMER "Dvorak"
ISRC 000000000000
INDEX 01 30:17:47
TRACK 07 AUDIO
TITLE "Akt 3 Jiz pulnoc nastava"
PERFORMER "Dvorak"
ISRC 000000000000
INDEX 01 32:31:05
TRACK 08 AUDIO
TITLE "Akt 3 Zde pohanska d'ablice"
PERFORMER "Dvorak"
ISRC 000000000000
INDEX 01 36:02:52
TRACK 09 AUDIO
TITLE "Akt 4 Ne mir, alie valky zar"
PERFORMER "Dvorak"
ISRC 000000000000
INDEX 01 44:39:07
TRACK 10 AUDIO
TITLE "Akt 4 My pak o vitezstvi"
PERFORMER "Dvorak"
ISRC 000000000000
INDEX 01 53:54:32
TRACK 11 AUDIO
TITLE "Akt 4 Prvni diky slusi bohum vznest"
PERFORMER "Dvorak"
ISRC 000000000000
INDEX 01 58:56:57
TRACK 12 AUDIO
TITLE "Akt 4 Verni a statecni"
PERFORMER "Dvorak"
ISRC 000000000000
INDEX 01 61:22:47



Показать сообщения:    

Текущее время: 03-Дек 03:16

Часовой пояс: UTC + 3


Вы не можете начинать темы
Вы не можете отвечать на сообщения
Вы не можете редактировать свои сообщения
Вы не можете удалять свои сообщения
Вы не можете голосовать в опросах
Вы не можете прикреплять файлы к сообщениям
Вы не можете скачивать файлы