Разговоры с Мирей Дюма: Лин Рено, Дэни Бун, Сальваторе Адамо и др. (3 выпуска) / Signe Mireille Dumas (Мирей Дюма / Mireille Dumas, Анн Седе / Anne Sedes) [2014, документальный, биографический, DVB] Original (Fre) + Sub (rus)


Статистика раздачи [Обновить пиров]
Размер:  6.89 GB   |    Зарегистрирован:  8 месяцев 19 дней   |    Скачан:  0 раз

Полного источника не было: Никогда

 
   
 
 
 

[Цитировать]

Разговоры с Мирей Дюма
Signé Mireille Dumas- Дата/Год выпуска: 2014
Страна: Франция
Жанр: документальный, биографический
Продолжительность: 05:39:47 (3 по ~01:55:00)
Перевод: Субтитры
Русские субтитры: естьФормат субтитров: hardsub (неотключаемые)
Доп. информация о субтитрах: перевод И.Рыбкиной, Éclair Group
Оригинальная аудиодорожка: французский
Режиссер: Мирей Дюма / Mireille Dumas, Анн Седе / Anne Sedes
Телеканал: TV5MONDE
Описание: Журналист, режиссер, продюсер и телеведущая, рыцарь ордена Почетного легиона Мирей Дюма возвращается на France 3 со своим ток-шоу в новом формате. Стартовавшее в 2012 году и выходившее 2 сезона шоу теледебатов было приостановлено руководством France 3 из-за "слишком обыденных рассказов участников", но в 2014 году снова восстановлено в связи с провалом нескольких телевизионных проектов, не заинтересовавших телезрителей.
Мирей Дюма ушла от чисто студийной формы и продолжила шоу в форме документальных фильмов, в каждом из которых рассказывается о творчестве двух представителей мира искусства. Это и интервью с героями передач, и многочисленные архивные кино- и фото-материалы, и наводящие вопросы интерактивной ведущей – самой Мирей Дюма.
Доп. информация: DVB-S

качество: DVB
формат: MKV
Видео: MPEG Video 2, 704x576@1024x576 (16:9), 25 fps, ~2697 kbps avg, 0.266 bit/pixel
Аудио: Французский (MPEG Audio 2, 2 ch, 48 kHz, ~192.00 kbps avg)

Список выпусков/серий01. Дани Бун и Лин Рено. Гордость шти / Line Renaud et Dany Boon, la fierté des Ch'tis (2014)

Продолжительность: 01:54:58
Описание: Лин Рено и Дани Бун, два самых известных шти во Франции, осуществили свою мечту. Странное совпадение – они оба родились в городке на севере Франции, в небогатых семьях, и покорили США с разницей в 40 лет. Лин Рено сделала потрясающую карьеру. К 86 годам она прожила 3 жизни, полные успеха – была певицей, солисткой мюзик-холла, а последние 30 лет – актрисой. Дани Бун – один из самых талантливых юмористов своего поколения, не похожий на других.

Скриншоты


Резервные скриншоты


02. Адамо и Офрэ говорят о жизни / Adamo, Aufray: c'est leur vie! (2014)

Продолжительность: 01:56:17 (отсутствуют заключительные титры)
Описание: Благодаря своим необычным голосам, Сальваторе Адамо и Юг Офрэ являются любимцами публики уже 50 лет. Они радуют слушателей своими трогательными песнями.

Скриншоты


Резервные скриншоты


03. Ги Бедос. Свободный артист / Guy Bedos en toute liberté (2014)

Продолжительность: 01:56:17
Описание: Выходец из Алжира, французский комик, артист мюзик-холла, актер и сценарист Ги Бедос известен своими острополитическими сатирическими скетчами.

Скриншоты


Резервные скриншоты


MediaInfo

Общее
Уникальный идентификатор : 250985495991039615014700381598529842753 (0xBCD20C5909919EDB9C0D008CBC6F6E41)
Полное имя : E:\My Torrents 2\[apreder]Signe_Mireille_Dumas\01. Line_Renaud_et_Dany_Boon_la_fierte_des_Ch'tis(2014)DVB.mkv
Формат : Matroska
Версия формата : Version 2
Размер файла : 2,37 Гбайт
Продолжительность : 1 ч. 54 м.
Режим общего битрейта : Переменный
Общий поток : 2948 Кбит/сек
Дата кодирования : UTC 2014-12-19 17:11:04
Программа кодирования : mkvmerge v7.4.0 ('Circles') 64bit built on Dec 12 2014 12:19:56
Библиотека кодирования : libebml v1.3.0 + libmatroska v1.4.1
Видео
Идентификатор : 1
Формат : MPEG Video
Версия формата : Version 2
Профиль формата : Main@Main
Параметр BVOP формата : Да
Параметр матрицы формата : Выборочная
Параметр GOP формата : M=3, N=15
Format_Settings_PictureStructure : Frame
Идентификатор кодека : V_MPEG2
Идентификатор кодека/Информация : MPEG 1 or 2 Video
Продолжительность : 1 ч. 54 м.
Вид битрейта : Переменный
Битрейт : 2697 Кбит/сек
Ширина : 704 пикселя
Высота : 576 пикселей
Соотношение сторон : 16:9
Режим частоты кадров : Постоянный
Частота кадров : 25,000 кадров/сек
Стандарт вещания : PAL
Цветовое пространство : YUV
Субдискретизация насыщенности : 4:2:0
Битовая глубина : 8 бит
Тип развёртки : Чересстрочная
Порядок развёртки : Верхнее поле первое
Метод сжатия : С потерями
Бит/(Пиксели*Кадры) : 0.266
Временной код первого кадра : 00:00:00:00
Оригинал временного кода : Group of pictures header
Размер потока : 2,17 Гбайт (91%)
Default : Да
Forced : Нет
Gop_OpenClosed_FirstFrame : Closed
Аудио
Идентификатор : 2
Формат : MPEG Audio
Версия формата : Version 1
Профиль формата : Layer 2
Идентификатор кодека : A_MPEG/L2
Идентификатор кодека/Подсказка : MP2
Продолжительность : 1 ч. 54 м.
Вид битрейта : Постоянный
Битрейт : 192 Кбит/сек
Каналы : 2 канала
Частота : 48,0 КГц
Метод сжатия : С потерями
Размер потока : 158 Мбайт (7%)
Язык : French
Default : Да
Forced : Нет
-

Внимание! Раздача ведётся путём добавления новых выпусков

Внимание! Раздача ведётся путём добавления новых выпусков; при каждом добавлении создаётся новый торрент. Чтобы начать докачку нового выпуска, пользователям необходимо сделать следующее:
(1) остановить скачивание,
(2) удалить старый торрент у себя из клиента (старые серии удалять не надо),
(3) скачать новый торрент и запустить его у себя в клиенте вместо старого, при этом указать клиенту путь в старую папку куда и должно происходить скачивание новых выпусков.
Ваш клиент при этом должен произвести хеширование (проверку) старой папки (если не производит сам - помогите ему сделать это). В результате он будет докачивать только те выпуски, которых у Вас ещё нет. Старые выпуски при этом не удаляются, а продолжают раздаваться!
Eсли Вы уже удалили старые выпуски, то предотвратить их повторную закачку можно, сняв галочки в соответствующих местах при запуске нового торрента. По возможности, желательно не удалять старые выпуски как можно дольше, чтобы релизёр не только продолжал раздавать старые выпуски, но и смог сконцентрироваться на новых.
-[1'998]
[teatrix.ru].t19803.torrent 
Торрент: Зарегистрирован [ 2016-03-19 00:02 ] · 8AE98197419B609CA73E95BA7BFE165AFDE1A6E2

Скачать .torrent

Скачать

35 KB

Статус: проверено
Скачан: 0 раз
Размер: 6.89 GB
terms.php



Быстрый ответ

Имя:

      
Для отправки сообщений необходимо включить JavaScript
Показать сообщения:    

Текущее время: 07-Дек 21:25

Часовой пояс: UTC + 3


Вы можете начинать темы
Вы можете отвечать на сообщения
Вы не можете редактировать свои сообщения
Вы не можете удалять свои сообщения
Вы не можете голосовать в опросах
Вы не можете прикреплять файлы к сообщениям
Вы можете скачивать файлы