(Classical) Юзеф Венявский – Симфония, увертюра «Вильгельм Молчаливый» / Jozef Wieniawski – Symphony & Overture «Guillaume le Taciturne» (Piotr Wajrak) - 2014, FLAC (image+.cue) lossless


 

[Цитировать]

Юзеф Венявский – Симфония, увертюра «Вильгельм Молчаливый» / Józef Wieniawski – Symphony & Overture «Guillaume le Taciturne» (Piotr Wajrak)
Жанр: Classical
Страна-производитель диска: ЕС
Год издания диска: 2014
Издатель (лейбл): Acte Préalable
Номер по каталогу: AP0331
Дата записи: 12 — 14 марта 2014 г., Жешув.
Аудиокодек: FLAC
Тип рипа: image+.cue
Битрейт аудио: lossless
Продолжительность: 00:50:25
Источник: odeonmusic
Наличие сканов в содержимом раздачи: да
Треклист:
Юзеф (Иосиф Иосифович) Венявский (1837 — 1912).
«Вильгельм Молчаливый», драматическая увертюра c-moll, op. 43 (опубл. 1887).
01. Andante. — Allegro appassionato [15:20].
Симфония D-dur, op. 49 (опубл. 1890).
02. I. Allegro con spirito, un poco pastorale [11:39].
03. II. Andante molto cantabile. — Poco più animato. — [Tempo I] [08:41].
04. III. Scherzo. Presto. — Allegretto. — [Tempo I.] — [Coda. Allegretto] [05:38].
05. IV. Finale. Allegro energico e risoluto [09:05].
Исполнители:
Orkiestra Symfoniczna Filharmonii Podkarpackiej im. Artura Malawskiego.
Дирижер Piotr Wajrak.

Лог создания рипа

Exact Audio Copy V1.0 beta 3 from 29. August 2011
EAC extraction logfile from 6. November 2014, 9:33
Piotr Wajrak / J.Wieniawski - Overture “Guillaume le Taciturne”, Symphony in D major - Piotr Wajrak
Used drive : TSSTcorpCDDVDW SH-222BB Adapter: 2 ID: 1
Read mode : Secure
Utilize accurate stream : Yes
Defeat audio cache : Yes
Make use of C2 pointers : No
Read offset correction : 6
Overread into Lead-In and Lead-Out : No
Fill up missing offset samples with silence : Yes
Delete leading and trailing silent blocks : No
Null samples used in CRC calculations : Yes
Used interface : Native Win32 interface for Win NT & 2000
Used output format : User Defined Encoder
Selected bitrate : 896 kBit/s
Quality : High
Add ID3 tag : No
Command line compressor : C:\Program Files\Exact Audio Copy\FLAC\FLAC.EXE
Additional command line options : -8 -V -T "TITLE=%title%" -T "ARTIST=%artist%" -T "ALBUMARTIST=%albumartist%" -T "ALBUM=%albumtitle%" -T "DATE=%year%" -T "TRACKNUMBER=%tracknr%" -T "TRACKTOTAL=%numtracks%" -T "GENRE=%genre%" -T "COMMENT=%comment%" -T "PERFORMER=%albuminterpret%" -T "COMPOSER=%composer%" %source% -o %dest%
TOC of the extracted CD
Track | Start | Length | Start sector | End sector
---------------------------------------------------------
1 | 0:00.00 | 15:20.16 | 0 | 69015
2 | 15:20.16 | 11:39.33 | 69016 | 121473
3 | 26:59.49 | 8:41.63 | 121474 | 160611
4 | 35:41.37 | 5:38.57 | 160612 | 186018
5 | 41:20.19 | 9:05.36 | 186019 | 226929
Range status and errors
Selected range
Filename G:\Ripped general\[7691] J.Wieniawski – Overture “Guillaume le Taciturne”, Symphony in D major – Piotr Wajrak\J.Wieniawski - Overture “Guillaume le Taciturne”, Symphony in D major - Piotr Wajrak.wav
Peak level 97.1 %
Extraction speed 6.4 X
Range quality 100.0 %
Test CRC 2DEB443C
Copy CRC 2DEB443C
Copy OK
No errors occurred
AccurateRip summary
Track 1 not present in database
Track 2 not present in database
Track 3 not present in database
Track 4 not present in database
Track 5 not present in database
None of the tracks are present in the AccurateRip database
End of status report
==== Log checksum 397AA43C64DCD7ADF087752B6582DBCA2D1A6E61BE34414D7DA467ACAE792A76 ====

Содержание индексной карты (.CUE)

REM DISCID 330BD105
REM COMMENT "ExactAudioCopy v1.0b3"
CATALOG 5901741653317
PERFORMER "Piotr Wajrak"
TITLE "Jozef Wieniawski – Overture & Symphony – Piotr Wajrak"
FILE "Jozef Wieniawski – Overture & Symphony – Piotr Wajrak.flac" WAVE
TRACK 01 AUDIO
TITLE "Ouverture dramatique 'Guillaume le Taciturne', Op. 43"
PERFORMER "Piotr Wajrak"
ISRC GBRH61433101
INDEX 01 00:00:00
TRACK 02 AUDIO
TITLE "Symphony in D major, Op. 49 - I. Allegro con spirito, un poco pastorale"
PERFORMER "Piotr Wajrak"
ISRC GBRH61433102
INDEX 00 15:15:16
INDEX 01 15:20:16
TRACK 03 AUDIO
TITLE "Symphony in D major, Op. 49 - II. Andante molto cantabile"
PERFORMER "Piotr Wajrak"
ISRC GBRH61433103
INDEX 01 26:59:49
TRACK 04 AUDIO
TITLE "Symphony in D major, Op. 49 - III. Scherzo. Presto"
PERFORMER "Piotr Wajrak"
ISRC GBRH61433104
INDEX 01 35:41:37
TRACK 05 AUDIO
TITLE "Symphony in D major, Op. 49 - IV. Finale. Allegro energico e risoluto"
PERFORMER "Piotr Wajrak"
ISRC GBRH61433105
INDEX 01 41:20:19



Показать сообщения:    

Текущее время: 09-Дек 18:32

Часовой пояс: UTC + 3


Вы не можете начинать темы
Вы не можете отвечать на сообщения
Вы не можете редактировать свои сообщения
Вы не можете удалять свои сообщения
Вы не можете голосовать в опросах
Вы не можете прикреплять файлы к сообщениям
Вы не можете скачивать файлы