Степ / Чечётка / Strictly Tap Dance (Susan Bishop) [1991, танцы, VHSRip]


Статистика раздачи [Обновить пиров]
Размер:  1.41 GB   |    Зарегистрирован:  8 месяцев 22 дня   |    Скачан:  0 раз

Полного источника не было: Никогда

Личеров:  3  [  0 KB/s  ]   Подробная статистика пиров
 
   
 
 
 

[Цитировать]

Степ / Чечётка / Strictly Tap Dance
Дата/Год выпуска: 1991
Страна: U.K.
Жанр: танцы
Продолжительность: 01:37:28
Перевод: Не требуется
Русские субтитры: нет
Режиссер: Susan Bishop
Studio: Green Umbrella
Описание из ru.wikipedia: Чечётка — разновидность танца, характерной особенностью которой является ритмическая ударная работа ног (от цыганского «чячё» — «да»; слово которое часто выкрикивают во время исполнения чечётки). Другое название — степ (от англ. step dance, от step — «шаг»; в самом английском языке этот термин включает любые танцы с упором на работу ног, а для чечётки используется tap dance, от tap — «стучать», «лёгкий стук»). Как правило, чечётка исполняется в специальной обуви, подбитой металлическими пластинами. Впрочем, эти металлические пластины — завоевание нового времени. Основатели жанра (Билл Робинсон, Сэмми Дэвис-младший, братья Николас и др.) ими не пользовались, полагаясь на твёрдые подошвы туфель и дубовый пол.
Доп. информация: из моей коллекции
качество: VHSRip >> Сэмпл
формат: AVI
Видео: 672x528 (1.27:1), 25 fps, XviD build 50 ~1836 kbps avg, 0.21 bit/pixel
Аудио: 48 kHz, MPEG, 2 ch, ~224.00 kbps avg
PS >> правильнее будет расположить в разделе ТАНЦА

MediaInfo

Формат                                   : AVI
Формат/Информация : Audio Video Interleave
Размер файла : 1,41 Гбайт
Продолжительность : 1 ч. 37 м.
Общий поток : 2071 Кбит/сек
Название фильма : Strictly Tap Dance
Программа кодирования : VirtualDubMod 1.5.10.3 | www.virtualdub-fr.org || (build 2550/release)
Библиотека кодирования : VirtualDubMod build 2550/release
Правообладатель : sasikainen
Видео
Идентификатор : 0
Формат : MPEG-4 Visual
Профиль формата : Advanced Simple@L5
Параметр BVOP формата : 2
Параметр QPel формата : Нет
Параметр GMC формата : Без точки перехода
Параметр матрицы формата : Default (MPEG)
Идентификатор кодека : XVID
Идентификатор кодека/Подсказка : XviD
Продолжительность : 1 ч. 37 м.
Битрейт : 1837 Кбит/сек
Ширина : 672 пикселя
Высота : 528 пикселей
Соотношение сторон : 1,273
Частота кадров : 25,000 кадров/сек
Цветовое пространство : YUV
Субдискретизация насыщенности : 4:2:0
Битовая глубина : 8 бит
Тип развёртки : Прогрессивная
Метод сжатия : С потерями
Бит/(Пиксели*Кадры) : 0.207
Размер потока : 1,25 Гбайт (89%)
Библиотека кодирования : XviD 1.2.1 (UTC 2008-12-04)
Аудио
Идентификатор : 1
Формат : MPEG Audio
Версия формата : Version 1
Профиль формата : Layer 2
Идентификатор кодека : 50
Продолжительность : 1 ч. 37 м.
Вид битрейта : Постоянный
Битрейт : 224 Кбит/сек
Каналы : 2 канала
Частота : 48,0 КГц
Метод сжатия : С потерями
Размер потока : 156 Мбайт (11%)
Выравнивание : Разделение по промежуткам
Продолжительность промежутка : 40 мс. (1,00 видеокадр)
Время предзагрузки промежутка : 500 мс.

Скриншоты

[teatrix.ru].t19811.torrent 
Торрент: Зарегистрирован [ 2016-03-19 00:17 ] · 4A3282328802B7F60EE4A8DA7E1F741A4ADD953F

Скачать .torrent

Скачать

15 KB

Статус: проверено
Скачан: 0 раз
Размер: 1.41 GB
terms.php



Быстрый ответ

Имя:

      
Для отправки сообщений необходимо включить JavaScript
Показать сообщения:    

Текущее время: 10-Дек 04:10

Часовой пояс: UTC + 3


Вы можете начинать темы
Вы можете отвечать на сообщения
Вы не можете редактировать свои сообщения
Вы не можете удалять свои сообщения
Вы не можете голосовать в опросах
Вы не можете прикреплять файлы к сообщениям
Вы можете скачивать файлы