(Classical, zarzuela) Бретон – «Праздник в день Паломы» / Breton – La verbena de la Paloma (Maria Bayo, Placido Domingo, Raquel Pierotti, Silvia Tro, Rafael Castejon, Jesus Castejon; Antoni Ros Marba) - 1994, FLAC (image+.cue) lossless


 

[Цитировать]

Бретон – «Праздник в день Паломы» / Bretón – La verbena de la Paloma (María Bayo, Plácido Domingo, Raquel Pierotti, Silvia Tro, Rafael Castejon, Jesús Castejon; Antoni Ros Marbà)
Жанр: Classical, zarzuela
Страна-производитель диска: Франция
Год издания диска: 1994
Издатель (лейбл): Auvidis Alois
Номер по каталогу: V 4725
Дата записи: апрель 1994 г., Мадрид.
Аудиокодек: FLAC
Тип рипа: image+.cue
Битрейт аудио: lossless
Продолжительность: 00:45:32
Источник: odeonmusic
Наличие сканов в содержимом раздачи: только первая страница (списки исполнителей и треков).
Треклист:
Томас Бретон-и-Эрнандес (1850 — 1923).
«Праздник в день Паломы, или Аптекарь и чулапас»,
лирический водевиль в одном действии, трех картинах (первая постановка 1894).

01. Вступление. Allegro. — Allegro. — [Солеа.] — Andantino. — Allegro moderato. — El mismo tiempo. — Tempo lento de habanera [04:25].
Картина первая.
02. — № 1. Разговор и сцена. Allegro animato (Дон Иларион, Дон Себастьян). — (Хулиан, Сенья Рита.) — Andantino (Хозяин, два парня). — [04:16].
03. — № 1-A. Песня Хулиана и ансамбль. Andantino (Хулиан, Сенья Рита). — (Дон Иларион, Дон Себастьян.) — Deciso (Хозяин, два парня). — Tempo I (септет). — (Привратник и его жена.) — Allegro (Хор чулапос и чулапас). — [04:32].
04. — №1-B. Сегидилья. Tiempo de seguidillas (Хор чулапос и чулапас) [01:24].
03. № 2. Куплеты Дона Илариона. Moderato [03:33].
Картина вторая.
04. № 3. Вступление, сцена и солеа. Allegro moderato. — Tiempo moderato de soledad (Певица, затем Антония, два полицейских). — Moderato (Антония, Каста, Сусана, сосед, соседка). — (Певица, затем все, кроме нее и соседей, хор) [06:09].
05. № 4. Ноктюрн. Moderato cási lento (Сторож и два полицейских). — [04:19].
(08.) — № 4-A. Сцена Дона Илариона и чулапас. Moderato cási lento (Два полицейских, говорят). — (Дон Иларион, Каста, Сусана, Антония.) — [02:20].
(09.) — № 4-B. Мазурка. Tiempo de mazurka (те же, говорят) [02:22].
06. № 5. Дуэт и сцена. Maestoso (Сенья Рита, Хулиан). — Moderato (те же). — (Два полицейских, говорят.) — Moderato (Каста, Сусана, Антония, Сенья Рита, Хулиан, Дон Иларион). — [04:14].
(11.) — № 5-A. Квинтет. Gracioso (Каста, Сусана, Сенья Рита, Хулиан, Дон Иларион). — Majestuoso (Сенья Рита, Хулиан). — Lento (Дон Иларион и те же). — Poco mas moviendo (Каста, Сусана, Хулиан, Дон Иларион). — [03:12].
(12.) — № 5-B. Хабанера. Tiempo lento de habanera (Сусана, Хулиан). — Poco allegro (говорят). — Moderato (Хозяин, Сусана, Сенья Рита, Хулиан, Дон Иларион, хор). — Lento (Каста, Сусана, Сенья Рита, Хулиан, два полицейских). — Allegro [04:35].
Исполнители:
María Bayo (Сусана),
Plácido Domingo (Хулиан),
Raquel Pierotti (Сенья Рита),
Silvia Tro (Каста),
Rafael Castejon (Дон Иларион),
Jesús Castejon (Дон Себастьян),
Ana María Amengual (тетушка Антония),
Milagros Martin (певица),
Enrique Baquerizo (ночной сторож),
Juan Jesús Rodriguez (I полицейский; привратник),
Alberto Rios (II полицейский),
Alfonso Echeverria (хозяин таверны),
Ramón de Andrés (I парень),
Martín Grijalba (II парень),
María Luisa Maesso (жена привратника),
María Carmen Campos Ros (соседка),
Alfredo Garcia Huegra (сосед).
Agustín Serrano (фортепиано, 1886),
Manuel Villuendas (скрипка).
Coro de la Comunidad de Madrid (дирижер Miguel Groba).
Orquesta Sinfónica de Madrid.
Дирижер Antoni Ros Marbà.

Лог создания рипа

Exact Audio Copy V1.0 beta 3 from 29. August 2011
EAC extraction logfile from 26. December 2013, 16:30
Antoni Ros Marbà / Tomás Bretón - La verbena de la Paloma - Antoni Ros Marbà
Used drive : TSSTcorpCDDVDW SH-222BB Adapter: 2 ID: 1
Read mode : Secure
Utilize accurate stream : Yes
Defeat audio cache : Yes
Make use of C2 pointers : No
Read offset correction : 6
Overread into Lead-In and Lead-Out : No
Fill up missing offset samples with silence : Yes
Delete leading and trailing silent blocks : No
Null samples used in CRC calculations : Yes
Used interface : Native Win32 interface for Win NT & 2000
Used output format : User Defined Encoder
Selected bitrate : 1024 kBit/s
Quality : High
Add ID3 tag : No
Command line compressor : C:\Program Files\Exact Audio Copy\Flac\flac.exe
Additional command line options : -8 -V -T "TITLE=%title%" -T "ARTIST=%artist%" -T "ALBUMARTIST=%albumartist%" -T "ALBUM=%albumtitle%" -T "DATE=%year%" -T "TRACKNUMBER=%tracknr%" -T "TRACKTOTAL=%numtracks%" -T "GENRE=%genre%" -T "COMMENT=%comment%" -T "PERFORMER=%albuminterpret%" -T "COMPOSER=%composer%" %source% -o %dest%
TOC of the extracted CD
Track | Start | Length | Start sector | End sector
---------------------------------------------------------
1 | 0:00.00 | 4:28.05 | 0 | 20104
2 | 4:28.05 | 4:15.62 | 20105 | 39291
3 | 8:43.67 | 4:32.25 | 39292 | 59716
4 | 13:16.17 | 1:25.40 | 59717 | 66131
5 | 14:41.57 | 3:35.73 | 66132 | 82329
6 | 18:17.55 | 6:10.72 | 82330 | 110151
7 | 24:28.52 | 4:19.00 | 110152 | 129576
8 | 28:47.52 | 2:20.05 | 129577 | 140081
9 | 31:07.57 | 2:23.68 | 140082 | 150874
10 | 33:31.50 | 4:13.57 | 150875 | 169906
11 | 37:45.32 | 3:12.48 | 169907 | 184354
12 | 40:58.05 | 4:34.07 | 184355 | 204911
Range status and errors
Selected range
Filename G:\Ripped general\[2666] Tomás Bretón – La verbena de la Paloma – Antoni Ros Marbà\Tomás Bretón - La verbena de la Paloma - Antoni Ros Marbà.wav
Peak level 100.0 %
Extraction speed 6.5 X
Range quality 100.0 %
Test CRC 0DDBFFE2
Copy CRC 0DDBFFE2
Copy OK
No errors occurred
AccurateRip summary
Track 1 accurately ripped (confidence 3) [3CD11F4A] (AR v2)
Track 2 accurately ripped (confidence 3) [E12A7164] (AR v2)
Track 3 accurately ripped (confidence 3) [83FBB18C] (AR v2)
Track 4 accurately ripped (confidence 3) [C305A06C] (AR v2)
Track 5 accurately ripped (confidence 3) [13B393FD] (AR v2)
Track 6 accurately ripped (confidence 3) [A053F99D] (AR v2)
Track 7 accurately ripped (confidence 3) [C756050E] (AR v2)
Track 8 accurately ripped (confidence 3) [A8856902] (AR v2)
Track 9 accurately ripped (confidence 3) [AC0E0ABD] (AR v2)
Track 10 accurately ripped (confidence 3) [516F3B4A] (AR v2)
Track 11 accurately ripped (confidence 3) [A9EAD947] (AR v2)
Track 12 accurately ripped (confidence 2) [74268695] (AR v2)
All tracks accurately ripped
End of status report

Содержание индексной карты (.CUE)

REM GENRE Classical
REM DATE 2002
REM DISCID AF0AAC0C
REM COMMENT "ExactAudioCopy v1.0b3"
PERFORMER "Antoni Ros Marbа"
TITLE "Tomas Breton – La verbena de la Paloma – Antoni Ros Marba"
FILE "Tomas Breton – La verbena de la Paloma – Antoni Ros Marba.flac" WAVE
TRACK 01 AUDIO
TITLE "La verbena de la Paloma - Preludio"
PERFORMER "Antoni Ros Marba"
INDEX 01 00:00:00
TRACK 02 AUDIO
TITLE "La verbena de la Paloma - No. 1. Parlante y escena -"
PERFORMER "Antoni Ros Marba"
INDEX 01 04:28:05
TRACK 03 AUDIO
TITLE "La verbena de la Paloma - No. 1-A. Cancion de Julian -"
PERFORMER "Antoni Ros Marba"
INDEX 01 08:43:67
TRACK 04 AUDIO
TITLE "La verbena de la Paloma - No. 1-B. Seguidillas"
PERFORMER "Antoni Ros Marba"
INDEX 01 13:16:17
TRACK 05 AUDIO
TITLE "La verbena de la Paloma - No. 2. Coplas de Don Hilarion"
PERFORMER "Antoni Ros Marba"
INDEX 01 14:41:57
TRACK 06 AUDIO
TITLE "La verbena de la Paloma - No. 3. Soledad"
PERFORMER "Antoni Ros Marba"
INDEX 01 18:17:55
TRACK 07 AUDIO
TITLE "La verbena de la Paloma - No. 4. Nocturno -"
PERFORMER "Antoni Ros Marba"
INDEX 01 24:28:52
TRACK 08 AUDIO
TITLE "La verbena de la Paloma - No. 4-A. Escena de las Chulapas y de Don Hilarion -"
PERFORMER "Antoni Ros Marba"
INDEX 01 28:47:52
TRACK 09 AUDIO
TITLE "La verbena de la Paloma - No. 4-B. Mazurca"
PERFORMER "Antoni Ros Marba"
INDEX 01 31:07:57
TRACK 10 AUDIO
TITLE "La verbena de la Paloma - No. 5. Duo y escena -"
PERFORMER "Antoni Ros Marba"
INDEX 01 33:31:50
TRACK 11 AUDIO
TITLE "La verbena de la Paloma - No. 5-A. Quinteto -"
PERFORMER "Antoni Ros Marba"
INDEX 01 37:45:32
TRACK 12 AUDIO
TITLE "La verbena de la Paloma - No. 5-B. Habanera concertante"
PERFORMER "Antoni Ros Marba"
INDEX 01 40:58:05



Показать сообщения:    

Текущее время: 03-Дек 03:20

Часовой пояс: UTC + 3


Вы не можете начинать темы
Вы не можете отвечать на сообщения
Вы не можете редактировать свои сообщения
Вы не можете удалять свои сообщения
Вы не можете голосовать в опросах
Вы не можете прикреплять файлы к сообщениям
Вы не можете скачивать файлы