(Oratorio) Handel - Messiah (Highlights) - Stokowski, Cameron, Armstrong, Bowen, Proctor - 1992, FLAC (tracks+.cue) lossless


Статистика раздачи [Обновить пиров]
Размер:  291 MB   |    Зарегистрирован:  8 месяцев 16 дней   |    Скачан:  0 раз

Полного источника не было: Никогда

Личеров:  3  [  0 KB/s  ]   Подробная статистика пиров
 
   
 
 
 

[Цитировать]

Handel - Messiah (Highlights)
Leopold Stokowski
London Symphony Chorus, London Symphony Orchestra
Жанр: Oratorio
Страна-производитель диска: Germany
Год издания диска: 1992
Издатель (лейбл): Decca
Дата записи: 1966
Аудиокодек: FLAC
Тип рипа: tracks+.cue
Битрейт аудио: lossless
Источник: скачано с
Исполнители:
CONDUCTOR: LEOPOLD STOKOWSKI
ORCHESTRA: LONDON SYMPHONY ORCHESTRA
CHOIR: LONDON SYMPHONY CHORUS
SOPRANO: SHEILA ARMSTRONG
ALTO: NORMA PROCTOR
TENOR: KENNETH BOWEN
BASS: JOHN CAMERON

Треклист

Messiah, oratorio, HWV 56
1 Overture 3:27
2 Every valley shall be exalted 4:24
3 And the glory of the Lord 4:02
4 Pastoral Symphony 4:57
5 Then shall the eyes of the blind be opened... He shall feed his flock... Come unto Him 8:57
6 Thy rebuke hath broken His heart... Behold and see if there be any sorrow 3:46
7 He was cut off out of the land of the living... But Thou didst not leave His soul in hell 3:26
8 Why do the nations 5:51
9 Hallelujah 4:56
10 I know that my Redeemer liveth 7:26
11 Since by man came death 2:25
12 Amen 4:27

Лог создания рипа

Exact Audio Copy V1.0 beta 3 from 29. August 2011
EAC extraction logfile from 7. October 2012, 15:55
London Symphony Orchestra / Handel's Messiah
Used drive : ATAPI DVD A DH20A3P Adapter: 2 ID: 1
Read mode : Secure
Utilize accurate stream : Yes
Defeat audio cache : Yes
Make use of C2 pointers : No
Read offset correction : 6
Overread into Lead-In and Lead-Out : No
Fill up missing offset samples with silence : Yes
Delete leading and trailing silent blocks : No
Null samples used in CRC calculations : Yes
Used interface : Native Win32 interface for Win NT & 2000
Gap handling : Appended to previous track
Used output format : User Defined Encoder
Selected bitrate : 896 kBit/s
Quality : High
Add ID3 tag : No
Command line compressor : C:\Program Files\Exact Audio Copy\Flac\flac.exe
Additional command line options : -8 -V -T "ARTIST=%artist%" -T "TITLE=%title%" -T "ALBUM=%albumtitle%" -T "DATE=%year%" -T "TRACKNUMBER=%tracknr%" -T "GENRE=%genre%" -T "PERFORMER=%albuminterpret%" -T "COMPOSER=%composer%" %haslyrics%--tag-from-file=LYRICS="%lyricsfile%"%haslyrics% -T "ALBUMARTIST=%albumartist%" -T "DISCNUMBER=%cdnumber%" -T "TOTALDISCS=%totalcds%" -T "TOTALTRACKS=%numtracks%" -T "COMMENT=%comment%" %source% -o %dest%
TOC of the extracted CD
Track | Start | Length | Start sector | End sector
---------------------------------------------------------
1 | 0:00.32 | 3:30.20 | 32 | 15801
2 | 3:30.52 | 4:22.15 | 15802 | 35466
3 | 7:52.67 | 4:00.13 | 35467 | 53479
4 | 11:53.05 | 4:54.65 | 53480 | 75594
5 | 16:47.70 | 8:54.67 | 75595 | 115711
6 | 25:42.62 | 3:45.58 | 115712 | 132644
7 | 29:28.45 | 3:24.37 | 132645 | 147981
8 | 32:53.07 | 5:48.38 | 147982 | 174119
9 | 38:41.45 | 4:53.65 | 174120 | 196159
10 | 43:35.35 | 7:23.42 | 196160 | 229426
11 | 50:59.02 | 2:22.50 | 229427 | 240126
12 | 53:21.52 | 4:43.65 | 240127 | 261416
Track 1
Filename F:\London Symphony Orchestra - Handel's Messiah - 1992\01 - Georg Friedrich Händel - Leopold Stokowski - Overture.wav
Pre-gap length 0:00:02.42
Peak level 63.7 %
Extraction speed 3.2 X
Track quality 100.0 %
Test CRC 394D29A8
Copy CRC 394D29A8
Accurately ripped (confidence 1) [66EB0248] (AR v1)
Copy OK
Track 2
Filename F:\London Symphony Orchestra - Handel's Messiah - 1992\02 - Georg Friedrich Händel - Leopold Stokowski - Every valley shall be exalted.wav
Pre-gap length 0:00:03.00
Peak level 65.0 %
Extraction speed 0.7 X
Track quality 99.9 %
Test CRC 8FA022B3
Copy CRC 8FA022B3
Accurately ripped (confidence 1) [B8B58A5B] (AR v1)
Copy OK
Track 3
Filename F:\London Symphony Orchestra - Handel's Messiah - 1992\03 - Georg Friedrich Händel - Leopold Stokowski - And the glory of the Lord.wav
Pre-gap length 0:00:03.69
Peak level 71.9 %
Extraction speed 3.8 X
Track quality 100.0 %
Test CRC 9C22F96B
Copy CRC 9C22F96B
Accurately ripped (confidence 1) [7B0299B2] (AR v1)
Copy OK
Track 4
Filename F:\London Symphony Orchestra - Handel's Messiah - 1992\04 - Georg Friedrich Händel - Leopold Stokowski - Pastoral Symphony.wav
Pre-gap length 0:00:02.86
Peak level 35.0 %
Extraction speed 3.9 X
Track quality 100.0 %
Test CRC 65FB9115
Copy CRC 65FB9115
Accurately ripped (confidence 1) [6A581587] (AR v1)
Copy OK
Track 5
Filename F:\London Symphony Orchestra - Handel's Messiah - 1992\05 - Georg Friedrich Händel - Leopold Stokowski - Then shall the eyes of the blind be opened,He shall feed his flock.wav
Pre-gap length 0:00:03.46
Peak level 57.3 %
Extraction speed 4.1 X
Track quality 100.0 %
Test CRC 03872739
Copy CRC 03872739
Accurately ripped (confidence 1) [29FAFA17] (AR v1)
Copy OK
Track 6
Filename F:\London Symphony Orchestra - Handel's Messiah - 1992\06 - Georg Friedrich Händel - Leopold Stokowski - Thy rebuke...Behold and see.wav
Pre-gap length 0:00:05.00
Peak level 48.0 %
Extraction speed 2.9 X
Track quality 99.9 %
Test CRC 20E087F4
Copy CRC 20E087F4
Accurately ripped (confidence 1) [F3776FDE] (AR v1)
Copy OK
Track 7
Filename F:\London Symphony Orchestra - Handel's Messiah - 1992\07 - Georg Friedrich Händel - Leopold Stokowski - He ws cut off...But thou dids't not leave his soul in hell.wav
Peak level 53.4 %
Extraction speed 3.0 X
Track quality 99.9 %
Test CRC 60662A62
Copy CRC 60662A62
Accurately ripped (confidence 1) [8AFDE6A1] (AR v1)
Copy OK
Track 8
Filename F:\London Symphony Orchestra - Handel's Messiah - 1992\08 - Georg Friedrich Händel - Leopold Stokowski - Why do the nations.wav
Pre-gap length 0:00:02.42
Peak level 67.1 %
Extraction speed 4.0 X
Track quality 100.0 %
Test CRC E7473827
Copy CRC E7473827
Accurately ripped (confidence 1) [4DEF81CB] (AR v1)
Copy OK
Track 9
Filename F:\London Symphony Orchestra - Handel's Messiah - 1992\09 - Georg Friedrich Händel - Leopold Stokowski - Hallelujah.wav
Pre-gap length 0:00:02.33
Peak level 95.6 %
Extraction speed 3.9 X
Track quality 100.0 %
Test CRC 65E92D2B
Copy CRC 65E92D2B
Accurately ripped (confidence 1) [6E50507B] (AR v1)
Copy OK
Track 10
Filename F:\London Symphony Orchestra - Handel's Messiah - 1992\10 - Georg Friedrich Händel - Leopold Stokowski - I know that my Redeemer liveth.wav
Pre-gap length 0:00:03.06
Peak level 52.5 %
Extraction speed 3.7 X
Track quality 99.9 %
Test CRC 19BD1659
Copy CRC 19BD1659
Accurately ripped (confidence 1) [BE183333] (AR v1)
Copy OK
Track 11
Filename F:\London Symphony Orchestra - Handel's Messiah - 1992\11 - Georg Friedrich Händel - Leopold Stokowski - Since by man came death.wav
Pre-gap length 0:00:03.16
Peak level 56.5 %
Extraction speed 3.4 X
Track quality 100.0 %
Test CRC 5B1BB98E
Copy CRC 5B1BB98E
Accurately ripped (confidence 1) [5541959F] (AR v1)
Copy OK
Track 12
Filename F:\London Symphony Orchestra - Handel's Messiah - 1992\12 - Georg Friedrich Händel - Leopold Stokowski - Amen.wav
Pre-gap length 0:00:03.20
Peak level 79.4 %
Extraction speed 3.2 X
Track quality 99.9 %
Test CRC DEAF7444
Copy CRC DEAF7444
Accurately ripped (confidence 1) [91E6AFCA] (AR v1)
Copy OK
All tracks accurately ripped
No errors occurred
End of status report
==== Log checksum 59E5A9EAA8A2F1E25D7F5964CBCAC41CEE6562E5658145767E18909A4328C2FD ====

Содержание индексной карты (.CUE)

REM GENRE classical
REM DATE 1992
REM DISCID 8C0D9D0C
REM COMMENT "ExactAudioCopy v1.0b3"
CATALOG 0028943387422
PERFORMER "London Symphony Orchestra"
TITLE "Handel's Messiah"
FILE "London Symphony Orchestra - Handel's Messiah - 1992\01 - Georg Friedrich Hдndel - Leopold Stokowski - Overture.wav" WAVE
TRACK 01 AUDIO
TITLE "Overture"
PERFORMER "London Symphony Orchestra"
ISRC GAVO76641001
PREGAP 00:00:32
INDEX 01 00:00:00
TRACK 02 AUDIO
TITLE "Every valley shall be exalted"
PERFORMER "London Symphony Orchestra"
ISRC GAVO76641002
INDEX 00 03:27:20
FILE "London Symphony Orchestra - Handel's Messiah - 1992\02 - Georg Friedrich Hдndel - Leopold Stokowski - Every valley shall be exalted.wav" WAVE
INDEX 01 00:00:00
TRACK 03 AUDIO
TITLE "And the glory of the Lord"
PERFORMER "London Symphony Orchestra"
ISRC GAVO76641003
INDEX 00 04:18:38
FILE "London Symphony Orchestra - Handel's Messiah - 1992\03 - Georg Friedrich Hдndel - Leopold Stokowski - And the glory of the Lord.wav" WAVE
INDEX 01 00:00:00
TRACK 04 AUDIO
TITLE "Pastoral Symphony"
PERFORMER "London Symphony Orchestra"
ISRC GAVO76641004
INDEX 00 03:57:23
FILE "London Symphony Orchestra - Handel's Messiah - 1992\04 - Georg Friedrich Hдndel - Leopold Stokowski - Pastoral Symphony.wav" WAVE
INDEX 01 00:00:00
TRACK 05 AUDIO
TITLE "Then shall the eyes of the blind be opened/He shall feed his flock"
PERFORMER "London Symphony Orchestra"
ISRC GAVO76641005
INDEX 00 04:51:30
FILE "London Symphony Orchestra - Handel's Messiah - 1992\05 - Georg Friedrich Hдndel - Leopold Stokowski - Then shall the eyes of the blind be opened,He shall feed his flock.wav" WAVE
INDEX 01 00:00:00
TRACK 06 AUDIO
TITLE "Thy rebuke...Behold and see"
PERFORMER "London Symphony Orchestra"
ISRC GAVO76641006
INDEX 00 08:49:67
FILE "London Symphony Orchestra - Handel's Messiah - 1992\06 - Georg Friedrich Hдndel - Leopold Stokowski - Thy rebuke...Behold and see.wav" WAVE
INDEX 01 00:00:00
FILE "London Symphony Orchestra - Handel's Messiah - 1992\07 - Georg Friedrich Hдndel - Leopold Stokowski - He ws cut off...But thou dids't not leave his soul in hell.wav" WAVE
TRACK 07 AUDIO
TITLE "He ws cut off...But thou dids't not leave his soul in hell"
PERFORMER "London Symphony Orchestra"
ISRC GAVO76641006
INDEX 01 00:00:00
TRACK 08 AUDIO
TITLE "Why do the nations"
PERFORMER "London Symphony Orchestra"
ISRC GAVO76641008
INDEX 00 03:22:05
FILE "London Symphony Orchestra - Handel's Messiah - 1992\08 - Georg Friedrich Hдndel - Leopold Stokowski - Why do the nations.wav" WAVE
INDEX 01 00:00:00
TRACK 09 AUDIO
TITLE "Hallelujah"
PERFORMER "London Symphony Orchestra"
ISRC GAVO76641009
INDEX 00 05:46:13
FILE "London Symphony Orchestra - Handel's Messiah - 1992\09 - Georg Friedrich Hдndel - Leopold Stokowski - Hallelujah.wav" WAVE
INDEX 01 00:00:00
TRACK 10 AUDIO
TITLE "I know that my Redeemer liveth"
PERFORMER "London Symphony Orchestra"
ISRC GAVO76641001
INDEX 00 04:50:60
FILE "London Symphony Orchestra - Handel's Messiah - 1992\10 - Georg Friedrich Hдndel - Leopold Stokowski - I know that my Redeemer liveth.wav" WAVE
INDEX 01 00:00:00
TRACK 11 AUDIO
TITLE "Since by man came death"
PERFORMER "London Symphony Orchestra"
ISRC GAVO76641011
INDEX 00 07:20:30
FILE "London Symphony Orchestra - Handel's Messiah - 1992\11 - Georg Friedrich Hдndel - Leopold Stokowski - Since by man came death.wav" WAVE
INDEX 01 00:00:00
TRACK 12 AUDIO
TITLE "Amen"
PERFORMER "London Symphony Orchestra"
ISRC GAVO76641012
INDEX 00 02:19:35
FILE "London Symphony Orchestra - Handel's Messiah - 1992\12 - Georg Friedrich Hдndel - Leopold Stokowski - Amen.wav" WAVE
INDEX 01 00:00:00
[teatrix.ru].t19814.torrent 
Торрент: Зарегистрирован [ 2016-03-19 00:17 ] · 36528A070D81D1389F76CB0B8824E71F260ACCD9

Скачать .torrent

Скачать

13 KB

Статус: проверено
Скачан: 0 раз
Размер: 291 MB
terms.php



Быстрый ответ

Имя:

      
Для отправки сообщений необходимо включить JavaScript
Показать сообщения:    

Текущее время: 04-Дек 17:18

Часовой пояс: UTC + 3


Вы можете начинать темы
Вы можете отвечать на сообщения
Вы не можете редактировать свои сообщения
Вы не можете удалять свои сообщения
Вы не можете голосовать в опросах
Вы не можете прикреплять файлы к сообщениям
Вы можете скачивать файлы