(Classical) Smetana - Ma vlast, The Bartered Bride (highlights), Dvorak - Prague Waltzes, Czech Suite in D major - Weller, Dorati, Kertesz, FLAC (tracks+.cue) lossless


 

[Цитировать]

Bedrich Smetana • Antonín Dvorák Жанр: Classical
Страна-производитель диска: Germany
Год издания диска: 1995
Издатель (лейбл): Decca
Номер по каталогу: 443015
Аудиокодек: FLAC
Тип рипа: tracks+.cue
Битрейт аудио: lossless
Продолжительность: 2 Hours 25 Mins.
Источник: скачано с
Наличие сканов в содержимом раздачи: нет

Треклист & ИсполнителиDisc 1

Bedřich Smetana
•Má Vlast (My Fatherland) •
1., No 1, Vyšehrad
2. No 2, Vltava (Moldau)
3. No 3, Šárka
4. No 4, (Z českých luhů a hájů) From Bohemia's Woods and Fields
5. No 5, Tábor
6. No 6, Blaník
• Walter Weller •
• Israel Philharmonic Orchestra

Disc 2

Prodaná nevesta (The Bartered Bride), opera, JB 1:100
1. Overture
2. Polka
3. Furiant
•István Kertész •
• Israel Philharmonic Orchestra •

4. Hakon Jarl, symphonic poem, JB 1:79 (Op. 16)
• Walter Weller •
• Israel Philharmonic Orchestra •

Antonín Dvořák
5. Prague Waltzes (Prazské valciky) for orchestra, B. 99
6. Nocturne for string orchestra in B major (arr. from Str. Qrt. No. 4 & Str. Qnt. B. 49), B. 47 (Op. 40)
7. Czech Suite, for orchestra in D major, B. 93 (Op. 39): Preludio (Pastorale)
8. Czech Suite, for orchestra in D major, B. 93 (Op. 39): Polka, Allegretto grazioso
9. Czech Suite, for orchestra in D major, B. 93 (Op. 39): Sousedska (Minuetto), Allegro giusto
10. Czech Suite, for orchestra in D major, B. 93 (Op. 39): Romanza, Andante con moto
11. Czech Suite, for orchestra in D major, B. 93 (Op. 39): Finale (Furiant), Presto
•Antal Doráti •
•Detroit Symphony Orchestra •

Лог создания рипаDisc 1

Exact Audio Copy V0.99 prebeta 5 from 4. May 2009
EAC extraction logfile from 19. July 2010, 22:36
Bedrich Smetana / Antonнn Dvorбk / Mб vlast / Prodanб nevesta / Hakon Jarl / Prague Waltzes / Nocturnes / Czech Suite
Used drive : PIONEER DVD-RW DVR-212D Adapter: 4 ID: 0
Read mode : Secure
Utilize accurate stream : Yes
Defeat audio cache : Yes
Make use of C2 pointers : No
Read offset correction : 48
Overread into Lead-In and Lead-Out : No
Fill up missing offset samples with silence : Yes
Delete leading and trailing silent blocks : No
Null samples used in CRC calculations : Yes
Used interface : Native Win32 interface for Win NT & 2000
Gap handling : Appended to previous track
Used output format : User Defined Encoder
Selected bitrate : 320 kBit/s
Quality : High
Add ID3 tag : No
Command line compressor : C:\Program Files\Exact Audio Copy\Flac\flac.exe
Additional command line options : -V -8 -T "artist=%a" -T "title=%t" -T "album=%g" -T "date=%y" -T "tracknumber=%n" -T "genre=%m" %s
TOC of the extracted CD
Track | Start | Length | Start sector | End sector
---------------------------------------------------------
1 | 0:00.33 | 14:44.37 | 33 | 66369
2 | 14:44.70 | 11:44.20 | 66370 | 119189
3 | 26:29.15 | 9:35.10 | 119190 | 162324
4 | 36:04.25 | 12:34.25 | 162325 | 218899
5 | 48:38.50 | 11:42.15 | 218900 | 271564
6 | 60:20.65 | 13:14.63 | 271565 | 331177
Track 1
Filename C:\Documents and Settings\wombat\Desktop\Smetana & Dvorak - Ma Vlast, The Bartered Bride, Prague Waltzes, Czech Suite (2CD) [FLAC]\Disc 1\01. Smetana - Mб vlast - Vysehrad.wav
Pre-gap length 0:00:02.44
Peak level 100.0 %
Track quality 100.0 %
Test CRC 3658C520
Copy CRC 3658C520
Cannot be verified as accurate (confidence 3) [72889B0C], AccurateRip returned [59A7AA31]
Copy OK
Track 2
Filename C:\Documents and Settings\wombat\Desktop\Smetana & Dvorak - Ma Vlast, The Bartered Bride, Prague Waltzes, Czech Suite (2CD) [FLAC]\Disc 1\02. Smetana - Mб vlast - Die Moldau.wav
Pre-gap length 0:00:05.10
Peak level 100.0 %
Track quality 100.0 %
Test CRC 317DCFE1
Copy CRC 317DCFE1
Cannot be verified as accurate (confidence 3) [81B2F466], AccurateRip returned [06729277]
Copy OK
Track 3
Filename C:\Documents and Settings\wombat\Desktop\Smetana & Dvorak - Ma Vlast, The Bartered Bride, Prague Waltzes, Czech Suite (2CD) [FLAC]\Disc 1\03. Smetana - Mб vlast - Sarka.wav
Pre-gap length 0:00:03.90
Peak level 100.0 %
Track quality 99.9 %
Test CRC 0F529620
Copy CRC 0F529620
Cannot be verified as accurate (confidence 3) [CD68FA3D], AccurateRip returned [F7191FD7]
Copy OK
Track 4
Filename C:\Documents and Settings\wombat\Desktop\Smetana & Dvorak - Ma Vlast, The Bartered Bride, Prague Waltzes, Czech Suite (2CD) [FLAC]\Disc 1\04. Smetana - Mб vlast - Aus Bцhmens Hain und Flur.wav
Pre-gap length 0:00:04.40
Peak level 96.4 %
Track quality 100.0 %
Test CRC 744E7F0C
Copy CRC 744E7F0C
Cannot be verified as accurate (confidence 3) [15C1DFD0], AccurateRip returned [813E7161]
Copy OK
Track 5
Filename C:\Documents and Settings\wombat\Desktop\Smetana & Dvorak - Ma Vlast, The Bartered Bride, Prague Waltzes, Czech Suite (2CD) [FLAC]\Disc 1\05. Smetana - Mб vlast - Tabor.wav
Pre-gap length 0:00:04.40
Peak level 100.0 %
Track quality 100.0 %
Test CRC D434CE39
Copy CRC D434CE39
Cannot be verified as accurate (confidence 3) [81F8C806], AccurateRip returned [6D6E952D]
Copy OK
Track 6
Filename C:\Documents and Settings\wombat\Desktop\Smetana & Dvorak - Ma Vlast, The Bartered Bride, Prague Waltzes, Czech Suite (2CD) [FLAC]\Disc 1\06. Smetana - Mб vlast - Blanik.wav
Pre-gap length 0:00:04.30
Peak level 99.8 %
Track quality 100.0 %
Test CRC F0AF1DA5
Copy CRC F0AF1DA5
Cannot be verified as accurate (confidence 3) [0F7B1FB3], AccurateRip returned [67B328E1]
Copy OK
No tracks could be verified as accurate
You may have a different pressing from the one(s) in the database
No errors occurred
End of status report

Disc 2

Exact Audio Copy V0.99 prebeta 5 from 4. May 2009
EAC extraction logfile from 19. July 2010, 23:51
Bedrich Smetana / Antonнn Dvorбk / Mб vlast / Prodanб nevesta / Hakon Jarl / Prague Waltzes / Nocturnes / Czech Suite
Used drive : PIONEER DVD-RW DVR-212D Adapter: 4 ID: 0
Read mode : Secure
Utilize accurate stream : Yes
Defeat audio cache : Yes
Make use of C2 pointers : No
Read offset correction : 48
Overread into Lead-In and Lead-Out : No
Fill up missing offset samples with silence : Yes
Delete leading and trailing silent blocks : No
Null samples used in CRC calculations : Yes
Used interface : Native Win32 interface for Win NT & 2000
Gap handling : Appended to previous track
Used output format : User Defined Encoder
Selected bitrate : 320 kBit/s
Quality : High
Add ID3 tag : No
Command line compressor : C:\Program Files\Exact Audio Copy\Flac\flac.exe
Additional command line options : -V -8 -T "artist=%a" -T "title=%t" -T "album=%g" -T "date=%y" -T "tracknumber=%n" -T "genre=%m" %s
TOC of the extracted CD
Track | Start | Length | Start sector | End sector
---------------------------------------------------------
1 | 0:00.32 | 6:29.00 | 32 | 29206
2 | 6:29.32 | 5:28.28 | 29207 | 53834
3 | 11:57.60 | 2:22.47 | 53835 | 64531
4 | 14:20.32 | 16:25.00 | 64532 | 138406
5 | 30:45.32 | 8:59.00 | 138407 | 178831
6 | 39:44.32 | 7:36.00 | 178832 | 213031
7 | 47:20.32 | 3:13.30 | 213032 | 227536
8 | 50:33.62 | 5:31.38 | 227537 | 252399
9 | 56:05.25 | 4:25.27 | 252400 | 272301
10 | 60:30.52 | 5:20.73 | 272302 | 296374
11 | 65:51.50 | 5:06.07 | 296375 | 319331
Track 1
Filename C:\Documents and Settings\wombat\Desktop\Smetana & Dvorak - Ma Vlast, The Bartered Bride, Prague Waltzes, Czech Suite (2CD) [FLAC]\Disc 2\01. Smetana - The Bartered Bride - Overture.wav
Pre-gap length 0:00:02.42
Peak level 92.3 %
Track quality 100.0 %
Test CRC 9A1FEB32
Copy CRC 9A1FEB32
Track not present in AccurateRip database
Copy OK
Track 2
Filename C:\Documents and Settings\wombat\Desktop\Smetana & Dvorak - Ma Vlast, The Bartered Bride, Prague Waltzes, Czech Suite (2CD) [FLAC]\Disc 2\02. Smetana - The Bartered Bride - Polka.wav
Pre-gap length 0:00:05.33
Peak level 91.6 %
Track quality 99.9 %
Test CRC 67BAA38B
Copy CRC 67BAA38B
Track not present in AccurateRip database
Copy OK
Track 3
Filename C:\Documents and Settings\wombat\Desktop\Smetana & Dvorak - Ma Vlast, The Bartered Bride, Prague Waltzes, Czech Suite (2CD) [FLAC]\Disc 2\03. Smetana - The Bartered Bride - Furiant.wav
Pre-gap length 0:00:03.70
Peak level 87.8 %
Track quality 100.0 %
Test CRC F377D1D6
Copy CRC F377D1D6
Track not present in AccurateRip database
Copy OK
Track 4
Filename C:\Documents and Settings\wombat\Desktop\Smetana & Dvorak - Ma Vlast, The Bartered Bride, Prague Waltzes, Czech Suite (2CD) [FLAC]\Disc 2\04. Smetana - Hakon Jarl.wav
Pre-gap length 0:00:06.13
Peak level 87.2 %
Track quality 100.0 %
Test CRC 2D4B90B2
Copy CRC 2D4B90B2
Track not present in AccurateRip database
Copy OK
Track 5
Filename C:\Documents and Settings\wombat\Desktop\Smetana & Dvorak - Ma Vlast, The Bartered Bride, Prague Waltzes, Czech Suite (2CD) [FLAC]\Disc 2\05. Dvorak - Prague Waltzes.wav
Pre-gap length 0:00:09.62
Peak level 83.1 %
Track quality 100.0 %
Test CRC 87E8D3FF
Copy CRC 87E8D3FF
Track not present in AccurateRip database
Copy OK
Track 6
Filename C:\Documents and Settings\wombat\Desktop\Smetana & Dvorak - Ma Vlast, The Bartered Bride, Prague Waltzes, Czech Suite (2CD) [FLAC]\Disc 2\06. Dvorak - Nocturne.wav
Pre-gap length 0:00:04.93
Peak level 27.8 %
Track quality 100.0 %
Test CRC C6CB70C2
Copy CRC C6CB70C2
Track not present in AccurateRip database
Copy OK
Track 7
Filename C:\Documents and Settings\wombat\Desktop\Smetana & Dvorak - Ma Vlast, The Bartered Bride, Prague Waltzes, Czech Suite (2CD) [FLAC]\Disc 2\07. Dvorak - Czech Suite - Preludium.wav
Pre-gap length 0:00:05.40
Peak level 51.2 %
Track quality 100.0 %
Test CRC 918A186C
Copy CRC 918A186C
Track not present in AccurateRip database
Copy OK
Track 8
Filename C:\Documents and Settings\wombat\Desktop\Smetana & Dvorak - Ma Vlast, The Bartered Bride, Prague Waltzes, Czech Suite (2CD) [FLAC]\Disc 2\08. Dvorak - Czech Suite - Polka.wav
Pre-gap length 0:00:03.06
Peak level 67.9 %
Track quality 100.0 %
Test CRC 132EF851
Copy CRC 132EF851
Track not present in AccurateRip database
Copy OK
Track 9
Filename C:\Documents and Settings\wombat\Desktop\Smetana & Dvorak - Ma Vlast, The Bartered Bride, Prague Waltzes, Czech Suite (2CD) [FLAC]\Disc 2\09. Dvorak - Czech Suite - Sousedska.wav
Pre-gap length 0:00:02.26
Peak level 58.3 %
Track quality 100.0 %
Test CRC 3F7CF3A9
Copy CRC 3F7CF3A9
Track not present in AccurateRip database
Copy OK
Track 10
Filename C:\Documents and Settings\wombat\Desktop\Smetana & Dvorak - Ma Vlast, The Bartered Bride, Prague Waltzes, Czech Suite (2CD) [FLAC]\Disc 2\10. Dvorak - Czech Suite - Romance.wav
Pre-gap length 0:00:02.20
Peak level 28.3 %
Track quality 100.0 %
Test CRC 699C3E0F
Copy CRC 699C3E0F
Track not present in AccurateRip database
Copy OK
Track 11
Filename C:\Documents and Settings\wombat\Desktop\Smetana & Dvorak - Ma Vlast, The Bartered Bride, Prague Waltzes, Czech Suite (2CD) [FLAC]\Disc 2\11. Dvorak - Czech Suite - Finale.wav
Pre-gap length 0:00:02.13
Peak level 100.0 %
Track quality 100.0 %
Test CRC AB810BDD
Copy CRC AB810BDD
Track not present in AccurateRip database
Copy OK
None of the tracks are present in the AccurateRip database
No errors occurred
End of status report

Содержание индексной карты (.CUE)Disc 1

REM GENRE Classical
REM DATE 1992
REM DISCID 51113F06
REM COMMENT "ExactAudioCopy v0.99pb5"
FILE "01. Smetana - Mб vlast - Vysehrad.wav" WAVE
TRACK 01 AUDIO
PREGAP 00:00:33
INDEX 01 00:00:00
TRACK 02 AUDIO
INDEX 00 14:39:29
FILE "02. Smetana - Mб vlast - Die Moldau.wav" WAVE
INDEX 01 00:00:00
TRACK 03 AUDIO
INDEX 00 11:40:27
FILE "03. Smetana - Mб vlast - Sarka.wav" WAVE
INDEX 01 00:00:00
TRACK 04 AUDIO
INDEX 00 09:30:55
FILE "04. Smetana - Mб vlast - Aus Bцhmens Hain und Flur.wav" WAVE
INDEX 01 00:00:00
TRACK 05 AUDIO
INDEX 00 12:29:70
FILE "05. Smetana - Mб vlast - Tabor.wav" WAVE
INDEX 01 00:00:00
TRACK 06 AUDIO
INDEX 00 11:37:67
FILE "06. Smetana - Mб vlast - Blanik.wav" WAVE
INDEX 01 00:00:00

Disc 2

REM GENRE Classical
REM DATE 1992
REM DISCID A710A10B
REM COMMENT "ExactAudioCopy v0.99pb5"
FILE "01. Smetana - The Bartered Bride - Overture.wav" WAVE
TRACK 01 AUDIO
PREGAP 00:00:32
INDEX 01 00:00:00
TRACK 02 AUDIO
INDEX 00 06:23:50
FILE "02. Smetana - The Bartered Bride - Polka.wav" WAVE
INDEX 01 00:00:00
TRACK 03 AUDIO
INDEX 00 05:24:50
FILE "03. Smetana - The Bartered Bride - Furiant.wav" WAVE
INDEX 01 00:00:00
TRACK 04 AUDIO
INDEX 00 02:16:37
FILE "04. Smetana - Hakon Jarl.wav" WAVE
INDEX 01 00:00:00
TRACK 05 AUDIO
INDEX 00 16:15:28
FILE "05. Dvorak - Prague Waltzes.wav" WAVE
INDEX 01 00:00:00
TRACK 06 AUDIO
INDEX 00 08:54:05
FILE "06. Dvorak - Nocturne.wav" WAVE
INDEX 01 00:00:00
TRACK 07 AUDIO
INDEX 00 07:30:45
FILE "07. Dvorak - Czech Suite - Preludium.wav" WAVE
INDEX 01 00:00:00
TRACK 08 AUDIO
INDEX 00 03:10:25
FILE "08. Dvorak - Czech Suite - Polka.wav" WAVE
INDEX 01 00:00:00
TRACK 09 AUDIO
INDEX 00 05:29:18
FILE "09. Dvorak - Czech Suite - Sousedska.wav" WAVE
INDEX 01 00:00:00
TRACK 10 AUDIO
INDEX 00 04:23:12
FILE "10. Dvorak - Czech Suite - Romance.wav" WAVE
INDEX 01 00:00:00
TRACK 11 AUDIO
INDEX 00 05:18:63
FILE "11. Dvorak - Czech Suite - Finale.wav" WAVE
INDEX 01 00:00:00



Показать сообщения:    

Текущее время: 03-Дек 09:43

Часовой пояс: UTC + 3


Вы не можете начинать темы
Вы не можете отвечать на сообщения
Вы не можете редактировать свои сообщения
Вы не можете удалять свои сообщения
Вы не можете голосовать в опросах
Вы не можете прикреплять файлы к сообщениям
Вы не можете скачивать файлы