Пик популярности - Митя Фомин (ex. Hi-Fi) [2014 г.; документальный, биография; DVB]


Статистика раздачи [Обновить пиров]
Размер:  1.48 GB   |    Зарегистрирован:  8 месяцев 18 дней   |    Скачан:  0 раз

Полного источника не было: Никогда

 
   
 
 
 

[Цитировать]

Пик популярности – Митя Фомин
Год выпуска: 2014
Страна: Россия
Жанр: документальный, биография
Продолжительность: 00:54:19
Телеканал: RU.TV
Описание: Митя Фомин – самый обаятельный и дружелюбный певец в российской шоу-бизнесе. Впервые откровенно о том, что он так долго скрывал. О слабостях и простых человеческих радостях, о вере и предательстве, о любви и ненависти. О том, как идти вперёд и не сломаться, чтобы придти к своему пику популярности. Чего ему стоил оглушительный успех в популярной группе? Чем закончился уход из неё? И какие трудности он испытал, когда пришлось начинать всё сначала?
Качество: DVB
Формат: MPG
Видео кодек: MPEG2
Видео: MPEG2 Video 720x576 (4:3) 25fps 3572kbps
Аудио: MPEG Audio 48000Hz stereo 256kbps

MI

General
Complete name : Пик популярности - Митя Фомин (2014) [RU.TV].mpg
Format : MPEG-PS
File size : 1.48 GiB
Duration : 54mn 19s
Overall bit rate mode : Variable
Overall bit rate : 3 906 Kbps
Writing library : (dvd5: Jun 16 2014)
Video
ID : 224 (0xE0)
Format : MPEG Video
Format version : Version 2
Format profile : Main@Main
Format settings, BVOP : No
Format settings, Matrix : Custom
Format settings, GOP : Variable
Duration : 54mn 19s
Bit rate mode : Variable
Bit rate : 3 572 Kbps
Maximum bit rate : 15.0 Mbps
Width : 720 pixels
Height : 576 pixels
Display aspect ratio : 4:3
Active Format Description : Full frame 16:9 image
Frame rate : 25.000 fps
Standard : PAL
Color space : YUV
Chroma subsampling : 4:2:0
Bit depth : 8 bits
Scan type : Interlaced
Scan order : Top Field First
Compression mode : Lossy
Bits/(Pixel*Frame) : 0.345
Time code of first frame : 00:00:00:00
Time code source : Group of pictures header
Stream size : 1.36 GiB (91%)
Source encoded stream size : (dvd5: Jun 16 2014)
Writing library : (dvd5: Jun 16 2014)
Audio
ID : 192 (0xC0)
Format : MPEG Audio
Format version : Version 1
Format profile : Layer 2
Duration : 54mn 19s
Bit rate mode : Constant
Bit rate : 256 Kbps
Channel(s) : 2 channels
Sampling rate : 48.0 KHz
Compression mode : Lossy
Stream size : 99.5 MiB (7%)
[teatrix.ru].t19819.torrent 
Торрент: Зарегистрирован [ 2016-03-19 00:02 ] · 21899E2C02E96B8EAF12EDFEC8BAEBC1F358F029

Скачать .torrent

Скачать

15 KB

Статус: проверено
Скачан: 0 раз
Размер: 1.48 GB
terms.php



Быстрый ответ

Имя:

      
Для отправки сообщений необходимо включить JavaScript
Показать сообщения:    

Текущее время: 06-Дек 22:57

Часовой пояс: UTC + 3


Вы можете начинать темы
Вы можете отвечать на сообщения
Вы не можете редактировать свои сообщения
Вы не можете удалять свои сообщения
Вы не можете голосовать в опросах
Вы не можете прикреплять файлы к сообщениям
Вы можете скачивать файлы