(Baroque pieces de viole) Marin Marais - Pieces de Viole, Cinquieme livre [1725], Deuxieme partie [2CD] (Jean-Louis Charbonnier) - 2002, FLAC (image+.cue) lossless


 

[Цитировать]

Marin Marais - Pièces de Viole, Cinquième livre [1725], Deuxième partie

Жанр: Baroque pieces de viole
Страна-производитель диска: Made in France
Год издания диска: 2002
Издатель (лейбл): ARION S.A. / Pierre Verany
Номер по каталогу: PV700039
Дата записи: 2002
Аудиокодек: FLAC
Тип рипа: image+.cue
Битрейт аудио: lossless
Продолжительность: 76'50 + 63'12
Источник: релизер
сайт-источник/ник/другое: Saoshya and Meeting in Music blogspot
Наличие сканов в содержимом раздачи: да
Треклист:

скрытый текст

CD1

скрытый текст

01. Sixième suite en sol majeur - Prélude 74 01:37
02. Allemande La Fière 75 01:46
03. Sarabande 76 02:28
04. Gigue La Précieuse 77 01:35
05. Gavotte 78 01:36
06. Gavotte légère 79 00:56
07. Menuets 80-81 02:10
08. Rondeau Le Troilleur 82 06:48
09. Chaconne 83 03:24
10. La Tatillone 84 02:54
11. Saillie du Jardin 85 01:22
12. Gigue La Pointilleuse 86 02:18
13. Le Jeu du Volant 87 01:50
14. L'Allemande Poisat 88 02:34
15. Le Rondeau Villeneuve 89 04:08
16. Le Petit Badinage 90 01:45
17. Dialogue 91 06:23
18. Cinquième suite en sol mineur - Prélude 63 02:35
19. Fantaisie 64 01:20
20. Allemande La Fréval des Loges 65 02:00
21. Sarabande 66 02:55
22. Gigue La Pagode 67 01:41
23. Gavotte 68 01:50
24. Meuet 69 01:00
25. Allemande La Marianne 70 02:24
26. Tombeau pour Marais le Cadet 71 07:04
27. Rondeau Le Badin 72 04:46
28. La Géorgienne dite La Maupertuis 73 03:26
CD2

скрытый текст

01. Septième suite en mi mineur - Prélude 92 02:25
02. Allemande La Beuron 93 01:54
03. La Simplicité Paysanne 94 01:28
04. Allemande La Bailly Duchené 95 03:41
05. Gavotte Singulière 96 01:44
06. Gavotte La Mignone 97 01:28
07. Sarabande 98 03:20
08. Menuet 99 et Menuet 2 100 02:01
09. Resveries Mesplaiziennes 101 05:13
10. Marche Persane dite La Savigny 102 03:23
11. Rondeau Le Plaisant 103 03:17
12. Gigue La Résolue 104 01:58
13. Les Amusements 105 01:33
14. Le Contraste 106 01:51
15. Le Caprice Bellemont 107 01:42
16. Le Tableau de l'Operation de la Taille 108 03:10
17. Les Relevailles 109 et suittes 110-111 05:15
18. La Poitevine 112 09:11
19. La Paraza 113 04:31
20. Le Tact 114 et La mesme pièce rendue facile 115 03:59
Исполнители:

скрытый текст

Marin Marais (1656-1728)
Pièces de Viole, Cinquième livre [1725], Deuxième partie
Jean-Louis Charbonnier
Paul Rousseau
Mauricio Buraglia
Pierre Trocellier
Лог создания рипа
CD1

скрытый текст

Exact Audio Copy V0.99 prebeta 4 from 23. January 2008
EAC extraction logfile from 26. August 2014, 11:36
Jean-Louis Charbonnier, Paul Rousseau, Mauricio Buraglia, Pierre Trocellier / Marin Marais - Pièces de Viole, Cinquième livre [1725], Deuxième partie CD1
Used drive : SONY DVD-ROM DDU1615 Adapter: 0 ID: 0
Read mode : Secure
Utilize accurate stream : Yes
Defeat audio cache : Yes
Make use of C2 pointers : No
Read offset correction : 6
Overread into Lead-In and Lead-Out : No
Fill up missing offset samples with silence : Yes
Delete leading and trailing silent blocks : No
Null samples used in CRC calculations : Yes
Used interface : Native Win32 interface for Win NT & 2000
Used output format : User Defined Encoder
Selected bitrate : 1024 kBit/s
Quality : High
Add ID3 tag : No
Command line compressor : C:\Program Files\REACT\REACT.exe
Additional command line options : REACT %o %s %d "%a" "%g" "%t" "%n" "%x" "%y" "%m" "%e" "%f" "%b" %r
TOC of the extracted CD
Track | Start | Length | Start sector | End sector
---------------------------------------------------------
1 | 0:00.00 | 1:37.52 | 0 | 7326
2 | 1:37.52 | 1:46.35 | 7327 | 15311
3 | 3:24.12 | 2:28.63 | 15312 | 26474
4 | 5:53.00 | 1:35.57 | 26475 | 33656
5 | 7:28.57 | 1:36.35 | 33657 | 40891
6 | 9:05.17 | 0:56.50 | 40892 | 45141
7 | 10:01.67 | 2:10.25 | 45142 | 54916
8 | 12:12.17 | 6:48.13 | 54917 | 85529
9 | 19:00.30 | 3:24.55 | 85530 | 100884
10 | 22:25.10 | 2:54.15 | 100885 | 113949
11 | 25:19.25 | 1:22.45 | 113950 | 120144
12 | 26:41.70 | 2:18.42 | 120145 | 130536
13 | 29:00.37 | 1:50.65 | 130537 | 138851
14 | 30:51.27 | 2:34.53 | 138852 | 150454
15 | 33:26.05 | 4:08.70 | 150455 | 169124
16 | 37:35.00 | 1:45.70 | 169125 | 177069
17 | 39:20.70 | 6:23.22 | 177070 | 205816
18 | 45:44.17 | 2:35.58 | 205817 | 217499
19 | 48:20.00 | 1:20.67 | 217500 | 223566
20 | 49:40.67 | 2:00.40 | 223567 | 232606
21 | 51:41.32 | 2:55.23 | 232607 | 245754
22 | 54:36.55 | 1:41.40 | 245755 | 253369
23 | 56:18.20 | 1:50.45 | 253370 | 261664
24 | 58:08.65 | 1:00.10 | 261665 | 266174
25 | 59:09.00 | 2:24.17 | 266175 | 276991
26 | 61:33.17 | 7:04.08 | 276992 | 308799
27 | 68:37.25 | 4:46.70 | 308800 | 330319
28 | 73:24.20 | 3:26.47 | 330320 | 345816
Range status and errors
Selected range
Filename L:\Ripped by Saoshya\Pierre Verany PV700039 - Marin Marais - Pieces de Viole, 5eme livre, 2eme partie (J.-L. Charbonnier, et al.)\CDImage 1\Marais - Pieces de Viole, 5eme Livre, 2eme partie - J.-L. Charbonnier CD1.wav
Peak level 73.0 %
Range quality 100.0 %
Test CRC C810869F
Copy CRC C810869F
Copy OK
No errors occurred
AccurateRip summary
Track 1 accurately ripped (confidence 3) [1D1F703D]
Track 2 accurately ripped (confidence 3) [DF1ACA2D]
Track 3 accurately ripped (confidence 3) [1077267E]
Track 4 accurately ripped (confidence 3) [7288BBA8]
Track 5 accurately ripped (confidence 3) [40A9E1CF]
Track 6 accurately ripped (confidence 3) [4340C446]
Track 7 accurately ripped (confidence 3) [6E903914]
Track 8 accurately ripped (confidence 3) [B3FB0CA3]
Track 9 accurately ripped (confidence 3) [C6D6CDCC]
Track 10 accurately ripped (confidence 3) [9C6C05B4]
Track 11 accurately ripped (confidence 3) [245A3258]
Track 12 accurately ripped (confidence 3) [B79F6D1A]
Track 13 accurately ripped (confidence 3) [A7095FBB]
Track 14 accurately ripped (confidence 3) [07D985CD]
Track 15 accurately ripped (confidence 3) [A2B942B1]
Track 16 accurately ripped (confidence 3) [0B8C628A]
Track 17 accurately ripped (confidence 3) [86E5087C]
Track 18 accurately ripped (confidence 3) [DD354EA9]
Track 19 accurately ripped (confidence 3) [876E073D]
Track 20 accurately ripped (confidence 3) [20A0BEEB]
Track 21 accurately ripped (confidence 3) [8085099F]
Track 22 accurately ripped (confidence 3) [21EA50EE]
Track 23 accurately ripped (confidence 3) [0E86D6EC]
Track 24 accurately ripped (confidence 3) [4044E78E]
Track 25 accurately ripped (confidence 3) [CD6898C2]
Track 26 accurately ripped (confidence 3) [08C08426]
Track 27 accurately ripped (confidence 3) [A092BB96]
Track 28 accurately ripped (confidence 3) [3B758132]
All tracks accurately ripped
End of status report
CD2

скрытый текст

Exact Audio Copy V0.99 prebeta 4 from 23. January 2008
EAC extraction logfile from 26. August 2014, 12:05
Jean-Louis Charbonnier, Paul Rousseau, Mauricio Buraglia, Pierre Trocellier / Marin Marais - Pièces de Viole, Cinquième livre [1725], Deuxième partie CD2
Used drive : SONY DVD-ROM DDU1615 Adapter: 0 ID: 0
Read mode : Secure
Utilize accurate stream : Yes
Defeat audio cache : Yes
Make use of C2 pointers : No
Read offset correction : 6
Overread into Lead-In and Lead-Out : No
Fill up missing offset samples with silence : Yes
Delete leading and trailing silent blocks : No
Null samples used in CRC calculations : Yes
Used interface : Native Win32 interface for Win NT & 2000
Used output format : User Defined Encoder
Selected bitrate : 1024 kBit/s
Quality : High
Add ID3 tag : No
Command line compressor : C:\Program Files\REACT\REACT.exe
Additional command line options : REACT %o %s %d "%a" "%g" "%t" "%n" "%x" "%y" "%m" "%e" "%f" "%b" %r
TOC of the extracted CD
Track | Start | Length | Start sector | End sector
---------------------------------------------------------
1 | 0:00.00 | 2:25.02 | 0 | 10876
2 | 2:25.02 | 1:54.53 | 10877 | 19479
3 | 4:19.55 | 1:28.05 | 19480 | 26084
4 | 5:47.60 | 3:41.47 | 26085 | 42706
5 | 9:29.32 | 1:44.10 | 42707 | 50516
6 | 11:13.42 | 1:28.13 | 50517 | 57129
7 | 12:41.55 | 3:20.62 | 57130 | 72191
8 | 16:02.42 | 2:01.30 | 72192 | 81296
9 | 18:03.72 | 5:13.38 | 81297 | 104809
10 | 23:17.35 | 3:23.62 | 104810 | 120096
11 | 26:41.22 | 3:17.20 | 120097 | 134891
12 | 29:58.42 | 1:58.53 | 134892 | 143794
13 | 31:57.20 | 1:33.30 | 143795 | 150799
14 | 33:30.50 | 1:51.50 | 150800 | 159174
15 | 35:22.25 | 1:42.25 | 159175 | 166849
16 | 37:04.50 | 3:10.12 | 166850 | 181111
17 | 40:14.62 | 5:15.53 | 181112 | 204789
18 | 45:30.40 | 9:11.45 | 204790 | 246159
19 | 54:42.10 | 4:31.07 | 246160 | 266491
20 | 59:13.17 | 3:59.10 | 266492 | 284426
Range status and errors
Selected range
Filename L:\Ripped by Saoshya\Pierre Verany PV700039 - Marin Marais - Pieces de Viole, 5eme livre, 2eme partie (J.-L. Charbonnier, et al.)\CDImage 2\Marais - Pieces de Viole, 5eme Livre, 2eme partie - J.-L. Charbonnier CD2.wav
Peak level 85.0 %
Range quality 99.9 %
Test CRC 6394A1E7
Copy CRC 6394A1E7
Copy OK
No errors occurred
AccurateRip summary
Track 1 accurately ripped (confidence 3) [B90EF6AE]
Track 2 accurately ripped (confidence 3) [FFA8B17C]
Track 3 accurately ripped (confidence 3) [FD828E17]
Track 4 accurately ripped (confidence 3) [7B11C40E]
Track 5 accurately ripped (confidence 3) [B8C73A1E]
Track 6 accurately ripped (confidence 3) [9E712289]
Track 7 accurately ripped (confidence 3) [8AD18F9A]
Track 8 accurately ripped (confidence 3) [A8F59A66]
Track 9 accurately ripped (confidence 3) [A3D06009]
Track 10 accurately ripped (confidence 3) [AD2314EF]
Track 11 accurately ripped (confidence 3) [AC369E5B]
Track 12 accurately ripped (confidence 3) [4A7D27EC]
Track 13 accurately ripped (confidence 3) [5CBB3A64]
Track 14 accurately ripped (confidence 3) [7886EC7C]
Track 15 accurately ripped (confidence 3) [A0DADE76]
Track 16 accurately ripped (confidence 3) [3254E029]
Track 17 accurately ripped (confidence 3) [A8E364FB]
Track 18 accurately ripped (confidence 3) [77262930]
Track 19 accurately ripped (confidence 3) [C05267DC]
Track 20 accurately ripped (confidence 3) [BA77FB19]
All tracks accurately ripped
End of status report



Показать сообщения:    

Текущее время: 04-Дек 21:26

Часовой пояс: UTC + 3


Вы не можете начинать темы
Вы не можете отвечать на сообщения
Вы не можете редактировать свои сообщения
Вы не можете удалять свои сообщения
Вы не можете голосовать в опросах
Вы не можете прикреплять файлы к сообщениям
Вы не можете скачивать файлы