(Baroque pieces de viole) Marin Marais - Pieces En Trio Pour Les Flutes, Violon et Dessus de Viole (1692) (Aux Pieds du Roy, Dirk Borner & Michael Form) - 2009, FLAC (image+.cue) lossless


 

[Цитировать]

Marin Marais - Pieces En Trio Pour Les Flutes, Violon et Dessus de Viole (1692)

Жанр: Baroque pieces en trio
Страна-производитель диска: Made in Europe
Год издания диска: 2009
Издатель (лейбл): Ambronay
Номер по каталогу: AMY 016
Дата записи: 2009
Аудиокодек: FLAC
Тип рипа: image+.cue
Битрейт аудио: lossless
Продолжительность: 71'04
Источник: релизер
сайт-источник/ник/другое: собственная коллекция
Наличие сканов в содержимом раздачи: да
Треклист:

скрытый текст

1. Suite en Re majeur: I. Prelude Aux Pieds du Roy, Michael Form and Dirk Boerner 1:22
2. II. Rigaudon Aux Pieds du Roy, Dirk Boerner and Michael Form 1:17
3. III. Sarabande grave Aux Pieds du Roy, Dirk Boerner and Michael Form 2:26
4. IV. Gavotte en rondeau Aux Pieds du Roy, Michael Form and Dirk Boerner 0:48
5. V. Double Aux Pieds du Roy, Dirk Boerner and Michael Form 0:52
6. VI. Bransle de village Aux Pieds du Roy, Dirk Boerner and Michael Form 0:35
7. VII. Menuet n°1 Aux Pieds du Roy, Dirk Boerner and Michael Form 0:49
8. VIII. Menuet N°2 Aux Pieds du Roy, Dirk Boerner and Michael Form 0:45
9. IX. Menuet n°3 Aux Pieds du Roy, Dirk Boerner and Michael Form 0:28
10. X. Menuet n°4 Aux Pieds du Roy, Dirk Boerner and Michael Form 0:32
11. XI. Gigue Aux Pieds du Roy, Dirk Boerner and Michael Form 1:30
12. XII. Simphonie, lentement Aux Pieds du Roy, Michael Form and Dirk Boerner 4:24
11. Suite en mi mineur: I. Prelude Aux Pieds du Roy, Dirk Boerner and Michael Form 2:59
14. II. Fantaisie Aux Pieds du Roy, Dirk Boerner and Michael Form 1:25
15. III. Gavotte Aux Pieds du Roy, Dirk Boerner and Michael Form 0:34
16. IV. Sarabande en rondeau Aux Pieds du Roy, Michael Form and Dirk Boerner 3:30
17. V. Menuet Aux Pieds du Roy, Dirk Boerner and Michael Form 0:32
18. VI. Caprice, lentement Aux Pieds du Roy, Dirk Boerner and Michael Form 2:40
19. VII. Passacaille Aux Pieds du Roy, Dirk Boerner and Michael Form 3:43
20. Suite en ut majeur: I. Prelude Aux Pieds du Roy, Michael Form and Dirk Boerner 1:48
21. II. Sarabande Aux Pieds du Roy, Michael Form and Dirk Boerner 1:59
22. III. Loure Aux Pieds du Roy, Dirk Boerner and Michael Form 2:14
23. IV. Gavotte Aux Pieds du Roy, Dirk Boerner and Michael Form 0:53
24. V. Rondeau Aux Pieds du Roy, Dirk Boerner and Michael Form 1:29
25. VI. Chaconne Aux Pieds du Roy, Dirk Boerner and Michael Form 8:12
26. Suite en sib majeur: Plainte Aux Pieds du Roy, Michael Form and Dirk Boerner 3:15
27. Suite en sol mineur: I. Prelude Aux Pieds du Roy, Dirk Boerner and Michael Form 1:50
28. II. Sarabande Aux Pieds du Roy, Dirk Boerner and Michael Form 1:59
29. III. Rondeau, gay Aux Pieds du Roy, Michael Form and Dirk Boerner 0:43
30. IV. Gigue Aux Pieds du Roy, Michael Form and Dirk Boerner 1:34
31. V. Gavotte Aux Pieds du Roy, Dirk Boerner and Michael Form 0:35
32. VI. Menuet 1 Aux Pieds du Roy, Michael Form and Dirk Boerner 0:42
33. VII. Menuet 2 Aux Pieds du Roy, Michael Form and Dirk Boerner 0:50
34. VIII. Plainte Aux Pieds du Roy, Dirk Boerner and Michael Form 3:14
35. IX. Air gay Aux Pieds du Roy, Dirk Boerner and Michael Form 1:16
36. X. Passacaille Aux Pieds du Roy, Michael Form and Dirk Boerner 7:01
Исполнители:

скрытый текст

Marin Marais
Pieces en trio pour les flutes, violon et dessus de viole (1692)
Aux Pieds du Roy
Dirk Borner & Michael Form, direction
Audio CD (29 Jun 2009)

Лог создания рипа

X Lossless Decoder version 20090930 (110.0)
XLD extraction logfile from 2009-10-15 20:08:24 +0200
Aux Pieds Du Roy / Marin Marais - Pieces en Trio (1692)
Used drive : OPTIARC DVD RW AD-5630A (revision 1AHN)
Use cdparanoia mode : YES (CDParanoia III 10.2 engine)
Disable audio cache : OK for the drive with cache less than 2750KB
Make use of C2 pointers : NO
Read offset correction : 48
Max retry count : 100
TOC of the extracted CD
Track | Start | Length | Start sector | End sector
---------------------------------------------------------
1 | 00:00:00 | 01:22:44 | 0 | 6193
2 | 01:22:44 | 01:16:71 | 6194 | 11964
3 | 02:39:40 | 02:26:28 | 11965 | 22942
4 | 05:05:68 | 00:48:45 | 22943 | 26587
5 | 05:54:38 | 00:52:65 | 26588 | 30552
6 | 06:47:28 | 00:35:65 | 30553 | 33242
7 | 07:23:18 | 00:49:39 | 33243 | 36956
8 | 08:12:57 | 00:45:15 | 36957 | 40346
9 | 08:57:72 | 00:28:10 | 40347 | 42456
10 | 09:26:07 | 00:32:01 | 42457 | 44857
11 | 09:58:08 | 01:30:17 | 44858 | 51624
12 | 11:28:25 | 04:24:50 | 51625 | 71474
13 | 15:53:00 | 02:59:65 | 71475 | 84964
14 | 18:52:65 | 01:25:45 | 84965 | 91384
15 | 20:18:35 | 00:34:65 | 91385 | 93999
16 | 20:53:25 | 03:30:52 | 94000 | 109801
17 | 24:24:02 | 00:32:28 | 109802 | 112229
18 | 24:56:30 | 02:40:68 | 112230 | 124297
19 | 27:37:23 | 03:43:40 | 124298 | 141062
20 | 31:20:63 | 01:48:50 | 141063 | 149212
21 | 33:09:38 | 01:59:11 | 149213 | 158148
22 | 35:08:49 | 02:14:35 | 158149 | 168233
23 | 37:23:09 | 00:53:71 | 168234 | 172279
24 | 38:17:05 | 01:29:31 | 172280 | 178985
25 | 39:46:36 | 08:12:55 | 178986 | 215940
26 | 47:59:16 | 03:15:69 | 215941 | 230634
27 | 51:15:10 | 01:50:51 | 230635 | 238935
28 | 53:05:61 | 01:59:70 | 238936 | 247930
29 | 55:05:56 | 00:43:18 | 247931 | 251173
30 | 55:48:74 | 01:34:61 | 251174 | 258284
31 | 57:23:60 | 00:35:15 | 258285 | 260924
32 | 57:59:00 | 00:42:68 | 260925 | 264142
33 | 58:41:68 | 00:50:31 | 264143 | 267923
34 | 59:32:24 | 03:14:44 | 267924 | 282517
35 | 62:46:68 | 01:16:67 | 282518 | 288284
36 | 64:03:60 | 07:01:03 | 288285 | 319862
All Tracks
Filename : /Marais/Marin Marais - Pieces en Trio (1692).flac
CRC32 hash (test run) : D4B9F1A9
CRC32 hash : B5D998A1
->Rip may not be accurate.
CRC32 hash (skip zero) : 4BB43211
Statistics
Read error : 0
Skipped (treated as error) : 0
Edge jitter error (maybe fixed) : 0
Atom jitter error (maybe fixed) : 0
Drift error (maybe fixed) : 0
Dropped bytes error (maybe fixed) : 0
Duplicated bytes error (maybe fixed) : 0
Inconsistency in error sectors : 0
Track 01
CRC32 hash (test run) : 56BB94E3
CRC32 hash : 56BB94E3
CRC32 hash (skip zero) : 4FC7DE83
AccurateRip signature : 211C6513
->Track not present in AccurateRip database.
Statistics
Read error : 0
Skipped (treated as error) : 0
Edge jitter error (maybe fixed) : 0
Atom jitter error (maybe fixed) : 0
Drift error (maybe fixed) : 0
Dropped bytes error (maybe fixed) : 0
Duplicated bytes error (maybe fixed) : 0
Inconsistency in error sectors : 0
Track 02
CRC32 hash (test run) : B6F1D531
CRC32 hash : B6F1D531
CRC32 hash (skip zero) : 332B5155
AccurateRip signature : 6D13A3FB
->Track not present in AccurateRip database.
Statistics
Read error : 0
Skipped (treated as error) : 0
Edge jitter error (maybe fixed) : 0
Atom jitter error (maybe fixed) : 0
Drift error (maybe fixed) : 0
Dropped bytes error (maybe fixed) : 0
Duplicated bytes error (maybe fixed) : 0
Inconsistency in error sectors : 0
Track 03
CRC32 hash (test run) : C094244A
CRC32 hash : C094244A
CRC32 hash (skip zero) : DCAB552B
AccurateRip signature : 3C416E0F
->Track not present in AccurateRip database.
Statistics
Read error : 0
Skipped (treated as error) : 0
Edge jitter error (maybe fixed) : 0
Atom jitter error (maybe fixed) : 0
Drift error (maybe fixed) : 0
Dropped bytes error (maybe fixed) : 0
Duplicated bytes error (maybe fixed) : 0
Inconsistency in error sectors : 0
Track 04
CRC32 hash (test run) : 7B15942D
CRC32 hash : 7B15942D
CRC32 hash (skip zero) : E9D20135
AccurateRip signature : 13A0C147
->Track not present in AccurateRip database.
Statistics
Read error : 0
Skipped (treated as error) : 0
Edge jitter error (maybe fixed) : 0
Atom jitter error (maybe fixed) : 0
Drift error (maybe fixed) : 0
Dropped bytes error (maybe fixed) : 0
Duplicated bytes error (maybe fixed) : 0
Inconsistency in error sectors : 0
Track 05
CRC32 hash (test run) : 43AE6FA5
CRC32 hash : 43AE6FA5
CRC32 hash (skip zero) : 510C30C3
AccurateRip signature : 23AD039A
->Track not present in AccurateRip database.
Statistics
Read error : 0
Skipped (treated as error) : 0
Edge jitter error (maybe fixed) : 0
Atom jitter error (maybe fixed) : 0
Drift error (maybe fixed) : 0
Dropped bytes error (maybe fixed) : 0
Duplicated bytes error (maybe fixed) : 0
Inconsistency in error sectors : 0
Track 06
CRC32 hash (test run) : 230830F7
CRC32 hash : 230830F7
CRC32 hash (skip zero) : 96EA926F
AccurateRip signature : 4B490825
->Track not present in AccurateRip database.
Statistics
Read error : 0
Skipped (treated as error) : 0
Edge jitter error (maybe fixed) : 0
Atom jitter error (maybe fixed) : 0
Drift error (maybe fixed) : 0
Dropped bytes error (maybe fixed) : 0
Duplicated bytes error (maybe fixed) : 0
Inconsistency in error sectors : 0
Track 07
CRC32 hash (test run) : 7FACB4D8
CRC32 hash : 7FACB4D8
CRC32 hash (skip zero) : 5D19CC92
AccurateRip signature : 783E6FD0
->Track not present in AccurateRip database.
Statistics
Read error : 0
Skipped (treated as error) : 0
Edge jitter error (maybe fixed) : 0
Atom jitter error (maybe fixed) : 0
Drift error (maybe fixed) : 0
Dropped bytes error (maybe fixed) : 0
Duplicated bytes error (maybe fixed) : 0
Inconsistency in error sectors : 0
Track 08
CRC32 hash (test run) : 59F98BFE
CRC32 hash : 59F98BFE
CRC32 hash (skip zero) : 6F0E73B4
AccurateRip signature : 6C77FC01
->Track not present in AccurateRip database.
Statistics
Read error : 0
Skipped (treated as error) : 0
Edge jitter error (maybe fixed) : 0
Atom jitter error (maybe fixed) : 0
Drift error (maybe fixed) : 0
Dropped bytes error (maybe fixed) : 0
Duplicated bytes error (maybe fixed) : 0
Inconsistency in error sectors : 0
Track 09
CRC32 hash (test run) : C13FA382
CRC32 hash : C13FA382
CRC32 hash (skip zero) : 44F1D201
AccurateRip signature : 4B9C2ED9
->Track not present in AccurateRip database.
Statistics
Read error : 0
Skipped (treated as error) : 0
Edge jitter error (maybe fixed) : 0
Atom jitter error (maybe fixed) : 0
Drift error (maybe fixed) : 0
Dropped bytes error (maybe fixed) : 0
Duplicated bytes error (maybe fixed) : 0
Inconsistency in error sectors : 0
Track 10
CRC32 hash (test run) : 4FD72335
CRC32 hash : 4FD72335
CRC32 hash (skip zero) : 763771FC
AccurateRip signature : BA01C5DF
->Track not present in AccurateRip database.
Statistics
Read error : 0
Skipped (treated as error) : 0
Edge jitter error (maybe fixed) : 0
Atom jitter error (maybe fixed) : 0
Drift error (maybe fixed) : 0
Dropped bytes error (maybe fixed) : 0
Duplicated bytes error (maybe fixed) : 0
Inconsistency in error sectors : 0
Track 11
CRC32 hash (test run) : 717C98AD
CRC32 hash : 717C98AD
CRC32 hash (skip zero) : AD3AFE35
AccurateRip signature : 61387FE7
->Track not present in AccurateRip database.
Statistics
Read error : 0
Skipped (treated as error) : 0
Edge jitter error (maybe fixed) : 0
Atom jitter error (maybe fixed) : 0
Drift error (maybe fixed) : 0
Dropped bytes error (maybe fixed) : 0
Duplicated bytes error (maybe fixed) : 0
Inconsistency in error sectors : 0
Track 12
CRC32 hash (test run) : 74676667
CRC32 hash : 74676667
CRC32 hash (skip zero) : 0D45A0E6
AccurateRip signature : 80B34D29
->Track not present in AccurateRip database.
Statistics
Read error : 0
Skipped (treated as error) : 0
Edge jitter error (maybe fixed) : 0
Atom jitter error (maybe fixed) : 0
Drift error (maybe fixed) : 0
Dropped bytes error (maybe fixed) : 0
Duplicated bytes error (maybe fixed) : 0
Inconsistency in error sectors : 0
Track 13
CRC32 hash (test run) : 39520AE7
CRC32 hash : 39520AE7
CRC32 hash (skip zero) : 4FC69C63
AccurateRip signature : FA189C67
->Track not present in AccurateRip database.
Statistics
Read error : 0
Skipped (treated as error) : 0
Edge jitter error (maybe fixed) : 0
Atom jitter error (maybe fixed) : 0
Drift error (maybe fixed) : 0
Dropped bytes error (maybe fixed) : 0
Duplicated bytes error (maybe fixed) : 0
Inconsistency in error sectors : 0
Track 14
CRC32 hash (test run) : 7E1A3779
CRC32 hash : 7E1A3779
CRC32 hash (skip zero) : 867DACC6
AccurateRip signature : 195A4CE8
->Track not present in AccurateRip database.
Statistics
Read error : 0
Skipped (treated as error) : 0
Edge jitter error (maybe fixed) : 0
Atom jitter error (maybe fixed) : 0
Drift error (maybe fixed) : 0
Dropped bytes error (maybe fixed) : 0
Duplicated bytes error (maybe fixed) : 0
Inconsistency in error sectors : 0
Track 15
CRC32 hash (test run) : 4FBAA42E
CRC32 hash : 4FBAA42E
CRC32 hash (skip zero) : 02F69965
AccurateRip signature : 592D6015
->Track not present in AccurateRip database.
Statistics
Read error : 0
Skipped (treated as error) : 0
Edge jitter error (maybe fixed) : 0
Atom jitter error (maybe fixed) : 0
Drift error (maybe fixed) : 0
Dropped bytes error (maybe fixed) : 0
Duplicated bytes error (maybe fixed) : 0
Inconsistency in error sectors : 0
Track 16
CRC32 hash (test run) : 5AE45E10
CRC32 hash : 5AE45E10
CRC32 hash (skip zero) : 91744D55
AccurateRip signature : 40E2BD82
->Track not present in AccurateRip database.
Statistics
Read error : 0
Skipped (treated as error) : 0
Edge jitter error (maybe fixed) : 0
Atom jitter error (maybe fixed) : 0
Drift error (maybe fixed) : 0
Dropped bytes error (maybe fixed) : 0
Duplicated bytes error (maybe fixed) : 0
Inconsistency in error sectors : 0
Track 17
CRC32 hash (test run) : 4B8DBD78
CRC32 hash : 4B8DBD78
CRC32 hash (skip zero) : A8FE6530
AccurateRip signature : 6F5001BF
->Track not present in AccurateRip database.
Statistics
Read error : 0
Skipped (treated as error) : 0
Edge jitter error (maybe fixed) : 0
Atom jitter error (maybe fixed) : 0
Drift error (maybe fixed) : 0
Dropped bytes error (maybe fixed) : 0
Duplicated bytes error (maybe fixed) : 0
Inconsistency in error sectors : 0
Track 18
CRC32 hash (test run) : BC848155
CRC32 hash : BC848155
CRC32 hash (skip zero) : 54085FA7
AccurateRip signature : 4297BD02
->Track not present in AccurateRip database.
Statistics
Read error : 0
Skipped (treated as error) : 0
Edge jitter error (maybe fixed) : 0
Atom jitter error (maybe fixed) : 0
Drift error (maybe fixed) : 0
Dropped bytes error (maybe fixed) : 0
Duplicated bytes error (maybe fixed) : 0
Inconsistency in error sectors : 0
Track 19
CRC32 hash (test run) : 16C0FD5F
CRC32 hash : 16C0FD5F
CRC32 hash (skip zero) : 5D71C148
AccurateRip signature : 51E0C424
->Track not present in AccurateRip database.
Statistics
Read error : 0
Skipped (treated as error) : 0
Edge jitter error (maybe fixed) : 0
Atom jitter error (maybe fixed) : 0
Drift error (maybe fixed) : 0
Dropped bytes error (maybe fixed) : 0
Duplicated bytes error (maybe fixed) : 0
Inconsistency in error sectors : 0
Track 20
CRC32 hash (test run) : 4B6E710C
CRC32 hash : 4B6E710C
CRC32 hash (skip zero) : 6513929C
AccurateRip signature : CAD3589F
->Track not present in AccurateRip database.
Statistics
Read error : 0
Skipped (treated as error) : 0
Edge jitter error (maybe fixed) : 0
Atom jitter error (maybe fixed) : 0
Drift error (maybe fixed) : 0
Dropped bytes error (maybe fixed) : 0
Duplicated bytes error (maybe fixed) : 0
Inconsistency in error sectors : 0
Track 21
CRC32 hash (test run) : E7103BE8
CRC32 hash : E7103BE8
CRC32 hash (skip zero) : 7A5ADEF0
AccurateRip signature : 2B007E02
->Track not present in AccurateRip database.
Statistics
Read error : 0
Skipped (treated as error) : 0
Edge jitter error (maybe fixed) : 0
Atom jitter error (maybe fixed) : 0
Drift error (maybe fixed) : 0
Dropped bytes error (maybe fixed) : 0
Duplicated bytes error (maybe fixed) : 0
Inconsistency in error sectors : 0
Track 22
CRC32 hash (test run) : 91482951
CRC32 hash : 91482951
CRC32 hash (skip zero) : 6AB875A2
AccurateRip signature : 68C61A03
->Track not present in AccurateRip database.
Statistics
Read error : 0
Skipped (treated as error) : 0
Edge jitter error (maybe fixed) : 0
Atom jitter error (maybe fixed) : 0
Drift error (maybe fixed) : 0
Dropped bytes error (maybe fixed) : 0
Duplicated bytes error (maybe fixed) : 0
Inconsistency in error sectors : 0
Track 23
CRC32 hash (test run) : 249964FD
CRC32 hash : 249964FD
CRC32 hash (skip zero) : CC4ECBBF
AccurateRip signature : 8BF3C1EE
->Track not present in AccurateRip database.
Statistics
Read error : 0
Skipped (treated as error) : 0
Edge jitter error (maybe fixed) : 0
Atom jitter error (maybe fixed) : 0
Drift error (maybe fixed) : 0
Dropped bytes error (maybe fixed) : 0
Duplicated bytes error (maybe fixed) : 0
Inconsistency in error sectors : 0
Track 24
CRC32 hash (test run) : EDCAE641
CRC32 hash : EDCAE641
CRC32 hash (skip zero) : A247E8AC
AccurateRip signature : 1F19D69A
->Track not present in AccurateRip database.
Statistics
Read error : 0
Skipped (treated as error) : 0
Edge jitter error (maybe fixed) : 0
Atom jitter error (maybe fixed) : 0
Drift error (maybe fixed) : 0
Dropped bytes error (maybe fixed) : 0
Duplicated bytes error (maybe fixed) : 0
Inconsistency in error sectors : 0
Track 25
CRC32 hash (test run) : 82405481
CRC32 hash : 82405481
CRC32 hash (skip zero) : EB1EE0C2
AccurateRip signature : 08FF4877
->Track not present in AccurateRip database.
Statistics
Read error : 0
Skipped (treated as error) : 0
Edge jitter error (maybe fixed) : 0
Atom jitter error (maybe fixed) : 0
Drift error (maybe fixed) : 0
Dropped bytes error (maybe fixed) : 0
Duplicated bytes error (maybe fixed) : 0
Inconsistency in error sectors : 0
Track 26
CRC32 hash (test run) : 4330B69A
CRC32 hash : 4330B69A
CRC32 hash (skip zero) : D0856BEA
AccurateRip signature : 6B75DDB3
->Track not present in AccurateRip database.
Statistics
Read error : 0
Skipped (treated as error) : 0
Edge jitter error (maybe fixed) : 0
Atom jitter error (maybe fixed) : 0
Drift error (maybe fixed) : 0
Dropped bytes error (maybe fixed) : 0
Duplicated bytes error (maybe fixed) : 0
Inconsistency in error sectors : 0
Track 27
CRC32 hash (test run) : 6975B2E6
CRC32 hash : 6975B2E6
CRC32 hash (skip zero) : 5F648014
AccurateRip signature : 8C1FB689
->Track not present in AccurateRip database.
Statistics
Read error : 0
Skipped (treated as error) : 0
Edge jitter error (maybe fixed) : 0
Atom jitter error (maybe fixed) : 0
Drift error (maybe fixed) : 0
Dropped bytes error (maybe fixed) : 0
Duplicated bytes error (maybe fixed) : 0
Inconsistency in error sectors : 0
Track 28
CRC32 hash (test run) : 7EFB096C
CRC32 hash : 7EFB096C
CRC32 hash (skip zero) : AAB64CFE
AccurateRip signature : 9476B797
->Track not present in AccurateRip database.
Statistics
Read error : 0
Skipped (treated as error) : 0
Edge jitter error (maybe fixed) : 0
Atom jitter error (maybe fixed) : 0
Drift error (maybe fixed) : 0
Dropped bytes error (maybe fixed) : 0
Duplicated bytes error (maybe fixed) : 0
Inconsistency in error sectors : 0
Track 29
CRC32 hash (test run) : 6D55F577
CRC32 hash : 6D55F577
CRC32 hash (skip zero) : 29EB67CF
AccurateRip signature : 1FA09F86
->Track not present in AccurateRip database.
Statistics
Read error : 0
Skipped (treated as error) : 0
Edge jitter error (maybe fixed) : 0
Atom jitter error (maybe fixed) : 0
Drift error (maybe fixed) : 0
Dropped bytes error (maybe fixed) : 0
Duplicated bytes error (maybe fixed) : 0
Inconsistency in error sectors : 0
Track 30
CRC32 hash (test run) : 112DED6D
CRC32 hash : 112DED6D
CRC32 hash (skip zero) : 077F7C6C
AccurateRip signature : 05337049
->Track not present in AccurateRip database.
Statistics
Read error : 0
Skipped (treated as error) : 0
Edge jitter error (maybe fixed) : 0
Atom jitter error (maybe fixed) : 0
Drift error (maybe fixed) : 0
Dropped bytes error (maybe fixed) : 0
Duplicated bytes error (maybe fixed) : 0
Inconsistency in error sectors : 0
Track 31
CRC32 hash (test run) : 5D2BDFA9
CRC32 hash : 5D2BDFA9
CRC32 hash (skip zero) : 030C1B49
AccurateRip signature : 070E334B
->Track not present in AccurateRip database.
Statistics
Read error : 0
Skipped (treated as error) : 0
Edge jitter error (maybe fixed) : 0
Atom jitter error (maybe fixed) : 0
Drift error (maybe fixed) : 0
Dropped bytes error (maybe fixed) : 0
Duplicated bytes error (maybe fixed) : 0
Inconsistency in error sectors : 0
Track 32
CRC32 hash (test run) : 28AF674A
CRC32 hash : 28AF674A
CRC32 hash (skip zero) : C1724555
AccurateRip signature : C5775A59
->Track not present in AccurateRip database.
Statistics
Read error : 0
Skipped (treated as error) : 0
Edge jitter error (maybe fixed) : 0
Atom jitter error (maybe fixed) : 0
Drift error (maybe fixed) : 0
Dropped bytes error (maybe fixed) : 0
Duplicated bytes error (maybe fixed) : 0
Inconsistency in error sectors : 0
Track 33
CRC32 hash (test run) : DC2D08E0
CRC32 hash : DC2D08E0
CRC32 hash (skip zero) : 2196C507
AccurateRip signature : 299D3529
->Track not present in AccurateRip database.
Statistics
Read error : 0
Skipped (treated as error) : 0
Edge jitter error (maybe fixed) : 0
Atom jitter error (maybe fixed) : 0
Drift error (maybe fixed) : 0
Dropped bytes error (maybe fixed) : 0
Duplicated bytes error (maybe fixed) : 0
Inconsistency in error sectors : 0
Track 34
CRC32 hash (test run) : A88D1E0E
CRC32 hash : 2B887A70
->Rip may not be accurate.
CRC32 hash (skip zero) : 5D0C427F
AccurateRip signature : 5A9B2067
->Track not present in AccurateRip database.
Statistics
Read error : 0
Skipped (treated as error) : 0
Edge jitter error (maybe fixed) : 0
Atom jitter error (maybe fixed) : 0
Drift error (maybe fixed) : 0
Dropped bytes error (maybe fixed) : 0
Duplicated bytes error (maybe fixed) : 0
Inconsistency in error sectors : 0
Track 35
CRC32 hash (test run) : F5E20AE1
CRC32 hash : F5E20AE1
CRC32 hash (skip zero) : 5EC85F45
AccurateRip signature : 725C80D2
->Track not present in AccurateRip database.
Statistics
Read error : 0
Skipped (treated as error) : 0
Edge jitter error (maybe fixed) : 0
Atom jitter error (maybe fixed) : 0
Drift error (maybe fixed) : 0
Dropped bytes error (maybe fixed) : 0
Duplicated bytes error (maybe fixed) : 0
Inconsistency in error sectors : 0
Track 36
CRC32 hash (test run) : 60EBE20B
CRC32 hash : 60EBE20B
CRC32 hash (skip zero) : 62C344B9
AccurateRip signature : 9AF719DC
->Track not present in AccurateRip database.
Statistics
Read error : 0
Skipped (treated as error) : 0
Edge jitter error (maybe fixed) : 0
Atom jitter error (maybe fixed) : 0
Drift error (maybe fixed) : 0
Dropped bytes error (maybe fixed) : 0
Duplicated bytes error (maybe fixed) : 0
Inconsistency in error sectors : 0
Some inconsistencies found
End of status report

Содержание индексной карты (.CUE)

TITLE "Marin Marais - Pieces en Trio (1692)"
PERFORMER "Aux Pieds Du Roy"
REM GENRE "Classical"
REM DATE 2009
FILE "Marin Marais - Pieces en Trio (1692).flac" WAVE
TRACK 01 AUDIO
TITLE "Suite en Re majeur - Prelude"
ISRC FRZDG0900330
INDEX 01 00:00:00
TRACK 02 AUDIO
TITLE "Suite en Re majeur - Rigaudon"
ISRC FRZDG0900331
INDEX 01 01:22:44
TRACK 03 AUDIO
TITLE "Suite en Re majeur - Sarabande grave"
ISRC FRZDG0900332
INDEX 01 02:39:40
TRACK 04 AUDIO
TITLE "Suite en Re majeur - Gavotte en Rondeau"
ISRC FRZDG0900333
INDEX 01 05:05:68
TRACK 05 AUDIO
TITLE "Suite en Re majeur - Double"
ISRC FRZDG0900334
INDEX 01 05:54:38
TRACK 06 AUDIO
TITLE "Suite en Re majeur - Bransle de village"
ISRC FRZDG0900335
INDEX 01 06:47:28
TRACK 07 AUDIO
TITLE "Suite en Re majeur - 1er Menuet"
ISRC FRZDG0900336
INDEX 01 07:23:18
TRACK 08 AUDIO
TITLE "Suite en Re majeur - 2nd Menuet"
ISRC FRZDG0900337
INDEX 01 08:12:57
TRACK 09 AUDIO
TITLE "Suite en Re majeur - 3e Menuet"
ISRC FRZDG0900338
INDEX 01 08:57:72
TRACK 10 AUDIO
TITLE "Suite en Re majeur - 4e Menuet"
ISRC FRZDG0900339
INDEX 01 09:26:07
TRACK 11 AUDIO
TITLE "Suite en Re majeur - Gigue"
ISRC FRZDG0900340
INDEX 01 09:58:08
TRACK 12 AUDIO
TITLE "Suite en Re majeur - Symphonie, lentement"
ISRC FRZDG0900341
INDEX 01 11:28:25
TRACK 13 AUDIO
TITLE "Suite en mi mineur - Prelude"
ISRC FRZDG0900342
INDEX 01 15:53:00
TRACK 14 AUDIO
TITLE "Suite en mi mineur - Fantasie"
ISRC FRZDG0900343
INDEX 01 18:52:65
TRACK 15 AUDIO
TITLE "Suite en mi mineur - Gavotte"
ISRC FRZDG0900344
INDEX 01 20:18:35
TRACK 16 AUDIO
TITLE "Suite en mi mineur - Sarabande en Rondeau"
ISRC FRZDG0900345
INDEX 01 20:53:25
TRACK 17 AUDIO
TITLE "Suite en mi mineur - Menuet"
ISRC FRZDG0900346
INDEX 01 24:24:02
TRACK 18 AUDIO
TITLE "Suite en mi mineur - Caprice, lentement"
ISRC FRZDG0900347
INDEX 01 24:56:30
TRACK 19 AUDIO
TITLE "Suite en mi mineur - Passacaille"
ISRC FRZDG0900348
INDEX 01 27:37:23
TRACK 20 AUDIO
TITLE "Suite en Ut majeur - Prelude"
ISRC FRZDG0900349
INDEX 01 31:20:63
TRACK 21 AUDIO
TITLE "Suite en Ut majeur - Sarabande"
ISRC FRZDG0900350
INDEX 01 33:09:38
TRACK 22 AUDIO
TITLE "Suite en Ut majeur - Loure"
ISRC FRZDG0900351
INDEX 01 35:08:49
TRACK 23 AUDIO
TITLE "Suite en Ut majeur - Gavotte"
ISRC FRZDG0900352
INDEX 01 37:23:09
TRACK 24 AUDIO
TITLE "Suite en Ut majeur - Rondeau"
ISRC FRZDG0900353
INDEX 01 38:17:05
TRACK 25 AUDIO
TITLE "Suite en Ut majeur - Chaconne"
ISRC FRZDG0900354
INDEX 01 39:46:36
TRACK 26 AUDIO
TITLE "Suite en Si b majeur - Plainte"
ISRC FRZDG0900355
INDEX 01 47:59:16
TRACK 27 AUDIO
TITLE "Suite en sol mineur - Prelude"
ISRC FRZDG0900356
INDEX 01 51:15:10
TRACK 28 AUDIO
TITLE "Suite en sol mineur - Sarabande"
ISRC FRZDG0900357
INDEX 01 53:05:61
TRACK 29 AUDIO
TITLE "Suite en sol mineur - Rondeau, gay"
ISRC FRZDG0900358
INDEX 01 55:05:56
TRACK 30 AUDIO
TITLE "Suite en sol mineur - Gigue"
ISRC FRZDG0900359
INDEX 01 55:48:74
TRACK 31 AUDIO
TITLE "Suite en sol mineur - Gavotte"
ISRC FRZDG0900360
INDEX 01 57:23:60
TRACK 32 AUDIO
TITLE "Suite en sol mineur - Menuet"
ISRC FRZDG0900361
INDEX 01 57:59:00
TRACK 33 AUDIO
TITLE "Suite en sol mineur - Menuet"
ISRC FRZDG0900362
INDEX 01 58:41:68
TRACK 34 AUDIO
TITLE "Suite en sol mineur - Plainte"
ISRC FRZDG0900363
INDEX 01 59:32:24
TRACK 35 AUDIO
TITLE "Suite en sol mineur - Air gay"
ISRC FRZDG0900364
INDEX 01 62:46:68
TRACK 36 AUDIO
TITLE "Suite en sol mineur - Passacaille"
ISRC FRZDG0900365
INDEX 01 64:03:60



Показать сообщения:    

Текущее время: 04-Дек 11:15

Часовой пояс: UTC + 3


Вы не можете начинать темы
Вы не можете отвечать на сообщения
Вы не можете редактировать свои сообщения
Вы не можете удалять свои сообщения
Вы не можете голосовать в опросах
Вы не можете прикреплять файлы к сообщениям
Вы не можете скачивать файлы