Волки и овцы (Петр Фоменко, Ма Чжен Хун) [2004, комдия, DVB] Мастерская Петра Фоменко


 

[Цитировать]

Волки и овцы
Название театра: Мастерская Петра Фоменко
Жанр: комдия
Год выпуска: 2004
Продолжительность: 01:39:11 + 00:54:00
Режиссёр: Петр Фоменко, Ма Чжен Хун
В ролях: Аполлон Викторович Мурзавецкий - Рустэм Юскаев,
Меропия Давыдовна Мурзавецкая - Мадлен Джабраилова,
Глафира Алексеевна - Галина Тюнина,
Евлампия Николаевна Купавина - Полина Кутепова,
Анфуса Тихоновна - Ксения Кутепова,
Михаил Борисович Лыняев - Юрий Степанов,
Василий Иванович Беркутов - Карэн Бадалов,
Вукол Наумович Чугунов - Тагир Рахимов,
Клавдий Горецкий - Кирилл Пирогов,
Павлин Савельевич - Андрей Казаков.
Описание: В спектакле остро, подчас гротескно, подан сюжет известной пьесы. Сюжет разворачивается вокруг аферы с векселями и попыткой заполучить мужа побогаче. Бережный по отношению к классику спектакль открывает новые грани пьесы - чеховский импрессионизм, поэзию уходящего мира и русской усадьбы. Сами собой приходят и ассоциации с современной жизнью.
Доп. информация:
Запись потока *.ts со спутника Ямал 202, 49° в.д., ремукс в *.mpg программой VideoReDo.
Качество видео: DVB
Формат видео: MPEG-PS
Видео: MPEG Video, 720(768)х576 (4:3), 25,000 кадр/сек, 5323 Кбит/сек
Аудио: MPEG Audio, 48,0 КГц, 2 канала, 256 Кбит/сек

MediaInfo

Общее
Полное имя : D:\1\Волки и овцы 1 (КУЛЬТУРА 49).mpg
Формат : MPEG-PS
Размер файла : 3,94 Гбайт
Продолжительность : 1 ч. 39 м.
Режим общего битрейта : Переменный
Общий поток : 5692 Кбит/сек
Видео
Идентификатор : 224 (0xE0)
Формат : MPEG Video
Версия формата : Version 2
Профиль формата : Main@Main
Параметр BVOP формата : Да
Параметр матрицы формата : Выборочная
Параметр GOP формата : M=3, N=15
Format_Settings_PictureStructure : Frame
Продолжительность : 1 ч. 39 м.
Вид битрейта : Переменный
Битрейт : 5323 Кбит/сек
Максимальный битрейт : 15,0 Мбит/сек
Ширина : 720 пикселей
Высота : 576 пикселей
Соотношение сторон : 4:3
Частота кадров : 25,000 кадров/сек
Стандарт вещания : PAL
Цветовое пространство : YUV
Субдискретизация насыщенности : 4:2:0
Битовая глубина : 8 бит
Тип развёртки : Чересстрочная
Порядок развёртки : Верхнее поле первое
Метод сжатия : С потерями
Бит/(Пиксели*Кадры) : 0.513
Временной код первого кадра : 00:00:00:00
Оригинал временного кода : Group of pictures header
Размер потока : 3,69 Гбайт (94%)
Аудио
Идентификатор : 192 (0xC0)
Формат : MPEG Audio
Версия формата : Version 1
Профиль формата : Layer 2
Продолжительность : 1 ч. 39 м.
Вид битрейта : Постоянный
Битрейт : 256 Кбит/сек
Каналы : 2 канала
Частота : 48,0 КГц
Метод сжатия : С потерями
Задержка видео : 9 мс.
Размер потока : 182 Мбайт (4%)
Общее
Полное имя : D:\1\Волки и овцы 2 (КУЛЬТУРА 49).mpg
Формат : MPEG-PS
Размер файла : 2,15 Гбайт
Продолжительность : 54 м.
Режим общего битрейта : Переменный
Общий поток : 5693 Кбит/сек
Видео
Идентификатор : 224 (0xE0)
Формат : MPEG Video
Версия формата : Version 2
Профиль формата : Main@Main
Параметр BVOP формата : Да
Параметр матрицы формата : Выборочная
Параметр GOP формата : M=3, N=15
Format_Settings_PictureStructure : Frame
Продолжительность : 54 м.
Вид битрейта : Переменный
Битрейт : 5323 Кбит/сек
Максимальный битрейт : 15,0 Мбит/сек
Ширина : 720 пикселей
Высота : 576 пикселей
Соотношение сторон : 4:3
Частота кадров : 25,000 кадров/сек
Стандарт вещания : PAL
Цветовое пространство : YUV
Субдискретизация насыщенности : 4:2:0
Битовая глубина : 8 бит
Тип развёртки : Чересстрочная
Порядок развёртки : Верхнее поле первое
Метод сжатия : С потерями
Бит/(Пиксели*Кадры) : 0.513
Временной код первого кадра : 00:00:00:00
Оригинал временного кода : Group of pictures header
Размер потока : 2,01 Гбайт (94%)
Аудио
Идентификатор : 192 (0xC0)
Формат : MPEG Audio
Версия формата : Version 1
Профиль формата : Layer 2
Продолжительность : 54 м.
Вид битрейта : Постоянный
Битрейт : 256 Кбит/сек
Каналы : 2 канала
Частота : 48,0 КГц
Метод сжатия : С потерями
Задержка видео : 9 мс.
Размер потока : 98,9 Мбайт (4%)

Скриншот с названием постановки




Показать сообщения:    

Текущее время: 11-Дек 11:02

Часовой пояс: UTC + 3


Вы не можете начинать темы
Вы не можете отвечать на сообщения
Вы не можете редактировать свои сообщения
Вы не можете удалять свои сообщения
Вы не можете голосовать в опросах
Вы не можете прикреплять файлы к сообщениям
Вы не можете скачивать файлы