(Cello, Sonata) Vivaldi - 6 Cello sonatas and basso continuo - Ofra Harnoy, Colin Tilney - 1994, FLAC (tracks+.cue) lossless


 

[Цитировать]

Antonio Vivaldi
6 sonatas for cello and basso continuo
Жанр: Cello, Sonata
Страна-производитель диска: USA
Год издания диска: 1994
Издатель (лейбл): RCA
Номер по каталогу: 60430
Дата записи: 1990
Аудиокодек: FLAC
Тип рипа: tracks+.cue
Битрейт аудио: lossless
Источник: скачано с
Наличие сканов в содержимом раздачи: да
Исполнители:
Mihai Tetel (Cello), Ofra Harnoy (Cello),
Colin Tilney (Harpsichord/Organ)

Треклист:
1. Sonata No. 5, RV 40 In E Minor: Largo
2. Sonata No. 5, RV 40 In E Minor: Allegro
3. Sonata No. 5, RV 40 In E Minor: Largo
4. Sonata No. 5, RV 40 In E Minor: Allegro
5. Sonata No. 4, RV 45 In B Flat: Largo
6. Sonata No. 4, RV 45 In B Flat: Allegro
7. Sonata No. 4, RV 45 In B Flat: Largo
8. Sonata No. 4, RV 45 In B Flat: Allegro
9. Sonata No. 6, RV 46 In B Flat: Largo
10. Sonata No. 6, RV 46 In B Flat: Allegro
11. Sonata No. 6, RV 46 In B Flat: Largo
12. Sonata No. 6, RV 46 In B Flat: Allegro
13. Sonata No. 3, RV 43 In A Minor: Largo
14. Sonata No. 3, RV 43 In A Minor: Allegro
15. Sonata No. 3, RV 43 In A Minor: Largo
16. Sonata No. 3, RV 43 In A Minor: Allegro
17. Sonata No. 1, RV 47 In B Flat: Largo
18. Sonata No. 1, RV 47 In B Flat: Allegro
19. Sonata No. 1, RV 47 In B Flat: Largo
20. Sonata No. 1, RV 47 In B Flat: Allegro
21. Sonata No. 2, RV 41In F Major: Largo
22. Sonata No. 2, RV 41In F Major: Allegro
23. Sonata No. 2, RV 41In F Major: Largo
24. Sonata No. 2, RV 41In F Major: Allegro

Отчёт EAC

Exact Audio Copy V1.0 beta 3 from 29. August 2011
EAC extraction logfile from 11. April 2012, 17:02
Ofra Harnoy / Vivaldi - Cello Sonatas
Used drive : HL-DT-STDVDRAM GH24NS70 Adapter: 2 ID: 0
Read mode : Secure
Utilize accurate stream : Yes
Defeat audio cache : Yes
Make use of C2 pointers : No
Read offset correction : 667
Overread into Lead-In and Lead-Out : No
Fill up missing offset samples with silence : Yes
Delete leading and trailing silent blocks : No
Null samples used in CRC calculations : Yes
Used interface : Native Win32 interface for Win NT & 2000
Gap handling : Appended to previous track
Used output format : User Defined Encoder
Selected bitrate : 1024 kBit/s
Quality : High
Add ID3 tag : No
Command line compressor : C:\Program Files (x86)\Exact Audio Copy\FLAC\FLAC.EXE
Additional command line options : -V -8 -T "ARTIST=%artist%" -T "TITLE=%title%" -T "ALBUM=%albumtitle%" -T "DATE=%year%" -T "TRACKNUMBER=%tracknr2%" -T "GENRE=%genre%" %source%
TOC of the extracted CD
Track | Start | Length | Start sector | End sector
---------------------------------------------------------
1 | 0:00.00 | 3:04.63 | 0 | 13862
2 | 3:04.63 | 2:54.00 | 13863 | 26912
3 | 5:58.63 | 3:12.00 | 26913 | 41312
4 | 9:10.63 | 2:01.00 | 41313 | 50387
5 | 11:11.63 | 2:34.37 | 50388 | 61974
6 | 13:46.25 | 2:43.00 | 61975 | 74199
7 | 16:29.25 | 4:01.38 | 74200 | 92312
8 | 20:30.63 | 3:23.00 | 92313 | 107537
9 | 23:53.63 | 2:30.00 | 107538 | 118787
10 | 26:23.63 | 3:06.00 | 118788 | 132737
11 | 29:29.63 | 2:16.00 | 132738 | 142937
12 | 31:45.63 | 2:18.00 | 142938 | 153287
13 | 34:03.63 | 3:10.00 | 153288 | 167537
14 | 37:13.63 | 3:20.00 | 167538 | 182537
15 | 40:33.63 | 3:13.00 | 182538 | 197012
16 | 43:46.63 | 2:55.00 | 197013 | 210137
17 | 46:41.63 | 3:56.00 | 210138 | 227837
18 | 50:37.63 | 3:24.00 | 227838 | 243137
19 | 54:01.63 | 2:13.00 | 243138 | 253112
20 | 56:14.63 | 2:09.00 | 253113 | 262787
21 | 58:23.63 | 2:06.37 | 262788 | 272274
22 | 60:30.25 | 2:35.38 | 272275 | 283937
23 | 63:05.63 | 2:35.00 | 283938 | 295562
24 | 65:40.63 | 3:05.50 | 295563 | 309487
Track 1
Filename C:\Users\Tim\Desktop\latest EAC rip\Ofra Harnoy - 1994 - Vivaldi - Cello Sonatas\01 Sonata No. 5, RV 40 I Largo.wav
Pre-gap length 0:00:02.00
Peak level 18.1 %
Extraction speed 1.0 X
Track quality 100.0 %
Test CRC 8936AA01
Copy CRC 8936AA01
Accurately ripped (confidence 11) [92680769] (AR v1)
Copy OK
Track 2
Filename C:\Users\Tim\Desktop\latest EAC rip\Ofra Harnoy - 1994 - Vivaldi - Cello Sonatas\02 Sonata No. 5, RV 40 II Allegro.wav
Pre-gap length 0:00:01.33
Peak level 43.4 %
Extraction speed 1.1 X
Track quality 100.0 %
Test CRC 8EAD24F8
Copy CRC 8EAD24F8
Accurately ripped (confidence 12) [8296063A] (AR v1)
Copy OK
Track 3
Filename C:\Users\Tim\Desktop\latest EAC rip\Ofra Harnoy - 1994 - Vivaldi - Cello Sonatas\03 Sonata No. 5, RV 40 III Largo.wav
Pre-gap length 0:00:01.33
Peak level 26.0 %
Extraction speed 1.3 X
Track quality 100.0 %
Test CRC 4337739A
Copy CRC 4337739A
Accurately ripped (confidence 12) [F1718D39] (AR v1)
Copy OK
Track 4
Filename C:\Users\Tim\Desktop\latest EAC rip\Ofra Harnoy - 1994 - Vivaldi - Cello Sonatas\04 Sonata No. 5, RV 40 IV Allegro.wav
Pre-gap length 0:00:01.33
Peak level 28.9 %
Extraction speed 1.2 X
Track quality 100.0 %
Test CRC B6441EA6
Copy CRC B6441EA6
Accurately ripped (confidence 12) [531832B4] (AR v1)
Copy OK
Track 5
Filename C:\Users\Tim\Desktop\latest EAC rip\Ofra Harnoy - 1994 - Vivaldi - Cello Sonatas\05 Sonata No. 4, RV 45 I Largo.wav
Pre-gap length 0:00:02.33
Peak level 19.9 %
Extraction speed 1.3 X
Track quality 100.0 %
Test CRC 3E5A9FBC
Copy CRC 3E5A9FBC
Accurately ripped (confidence 12) [8E7D0925] (AR v1)
Copy OK
Track 6
Filename C:\Users\Tim\Desktop\latest EAC rip\Ofra Harnoy - 1994 - Vivaldi - Cello Sonatas\06 Sonata No. 4, RV 45 II Allegro.wav
Pre-gap length 0:00:01.36
Peak level 31.4 %
Extraction speed 1.1 X
Track quality 99.9 %
Test CRC A71EEB03
Copy CRC A71EEB03
Accurately ripped (confidence 12) [7A1AC698] (AR v1)
Copy OK
Track 7
Filename C:\Users\Tim\Desktop\latest EAC rip\Ofra Harnoy - 1994 - Vivaldi - Cello Sonatas\07 Sonata No. 4, RV 45 III Largo.wav
Pre-gap length 0:00:01.36
Peak level 29.1 %
Extraction speed 1.6 X
Track quality 100.0 %
Test CRC 5ED1DE37
Copy CRC 5ED1DE37
Accurately ripped (confidence 12) [042E5657] (AR v1)
Copy OK
Track 8
Filename C:\Users\Tim\Desktop\latest EAC rip\Ofra Harnoy - 1994 - Vivaldi - Cello Sonatas\08 Sonata No. 4, RV 45 IV Allegro.wav
Pre-gap length 0:00:01.33
Peak level 23.5 %
Extraction speed 1.6 X
Track quality 100.0 %
Test CRC A04940D3
Copy CRC A04940D3
Accurately ripped (confidence 12) [D7BE6146] (AR v1)
Copy OK
Track 9
Filename C:\Users\Tim\Desktop\latest EAC rip\Ofra Harnoy - 1994 - Vivaldi - Cello Sonatas\09 Sonata No. 6, RV 46 I Largo.wav
Pre-gap length 0:00:02.33
Peak level 21.2 %
Extraction speed 1.5 X
Track quality 100.0 %
Test CRC 02BB4CE6
Copy CRC 02BB4CE6
Accurately ripped (confidence 12) [891057B0] (AR v1)
Copy OK
Track 10
Filename C:\Users\Tim\Desktop\latest EAC rip\Ofra Harnoy - 1994 - Vivaldi - Cello Sonatas\10 Sonata No. 6, RV 46 II Allegro.wav
Pre-gap length 0:00:01.33
Peak level 23.0 %
Extraction speed 1.7 X
Track quality 100.0 %
Test CRC 20C0D3C6
Copy CRC 20C0D3C6
Accurately ripped (confidence 12) [F2E4CD61] (AR v1)
Copy OK
Track 11
Filename C:\Users\Tim\Desktop\latest EAC rip\Ofra Harnoy - 1994 - Vivaldi - Cello Sonatas\11 Sonata No. 6, RV 46 III Largo.wav
Pre-gap length 0:00:01.33
Peak level 17.1 %
Extraction speed 1.6 X
Track quality 100.0 %
Test CRC B74811F5
Copy CRC B74811F5
Accurately ripped (confidence 12) [EA64EA44] (AR v1)
Copy OK
Track 12
Filename C:\Users\Tim\Desktop\latest EAC rip\Ofra Harnoy - 1994 - Vivaldi - Cello Sonatas\12 Sonata No. 6, RV 46 IV Allegro.wav
Pre-gap length 0:00:01.33
Peak level 24.5 %
Extraction speed 1.6 X
Track quality 100.0 %
Test CRC 9BC2260C
Copy CRC 9BC2260C
Accurately ripped (confidence 12) [4411665D] (AR v1)
Copy OK
Track 13
Filename C:\Users\Tim\Desktop\latest EAC rip\Ofra Harnoy - 1994 - Vivaldi - Cello Sonatas\13 Sonata No. 3, RV 43 I Largo.wav
Pre-gap length 0:00:02.33
Peak level 18.2 %
Extraction speed 1.8 X
Track quality 100.0 %
Test CRC D8AC79A7
Copy CRC D8AC79A7
Accurately ripped (confidence 12) [F8D22F07] (AR v1)
Copy OK
Track 14
Filename C:\Users\Tim\Desktop\latest EAC rip\Ofra Harnoy - 1994 - Vivaldi - Cello Sonatas\14 Sonata No. 3, RV 43 II Allegro.wav
Pre-gap length 0:00:01.33
Peak level 34.2 %
Extraction speed 1.9 X
Track quality 100.0 %
Test CRC C969D5F4
Copy CRC C969D5F4
Accurately ripped (confidence 12) [2BDB9C69] (AR v1)
Copy OK
Track 15
Filename C:\Users\Tim\Desktop\latest EAC rip\Ofra Harnoy - 1994 - Vivaldi - Cello Sonatas\15 Sonata No. 3, RV 43 III Largo.wav
Pre-gap length 0:00:01.33
Peak level 17.1 %
Extraction speed 1.4 X
Track quality 99.8 %
Test CRC BC166104
Copy CRC BC166104
Accurately ripped (confidence 12) [A7978F09] (AR v1)
Copy OK
Track 16
Filename C:\Users\Tim\Desktop\latest EAC rip\Ofra Harnoy - 1994 - Vivaldi - Cello Sonatas\16 Sonata No. 3, RV 43 IV Allegro.wav
Pre-gap length 0:00:01.33
Peak level 26.0 %
Extraction speed 2.0 X
Track quality 100.0 %
Test CRC 506B49D7
Copy CRC 506B49D7
Accurately ripped (confidence 12) [EBD3494E] (AR v1)
Copy OK
Track 17
Filename C:\Users\Tim\Desktop\latest EAC rip\Ofra Harnoy - 1994 - Vivaldi - Cello Sonatas\17 Sonata No. 1, RV 47 I Largo.wav
Pre-gap length 0:00:02.33
Peak level 19.1 %
Extraction speed 1.8 X
Track quality 99.9 %
Test CRC 1FC09B7A
Copy CRC 1FC09B7A
Accurately ripped (confidence 12) [4ADCB87B] (AR v1)
Copy OK
Track 18
Filename C:\Users\Tim\Desktop\latest EAC rip\Ofra Harnoy - 1994 - Vivaldi - Cello Sonatas\18 Sonata No. 1, RV 47 I Allegro.wav
Pre-gap length 0:00:01.33
Peak level 37.9 %
Extraction speed 2.1 X
Track quality 100.0 %
Test CRC 1397EA66
Copy CRC 1397EA66
Accurately ripped (confidence 12) [5920A9A2] (AR v1)
Copy OK
Track 19
Filename C:\Users\Tim\Desktop\latest EAC rip\Ofra Harnoy - 1994 - Vivaldi - Cello Sonatas\19 Sonata No. 1, RV 47 II Largo.wav
Pre-gap length 0:00:01.33
Peak level 17.3 %
Extraction speed 1.9 X
Track quality 100.0 %
Test CRC 3E42789B
Copy CRC 3E42789B
Accurately ripped (confidence 12) [13865FBC] (AR v1)
Copy OK
Track 20
Filename C:\Users\Tim\Desktop\latest EAC rip\Ofra Harnoy - 1994 - Vivaldi - Cello Sonatas\20 Sonata No. 1, RV 47 III Allegro.wav
Pre-gap length 0:00:01.33
Peak level 29.0 %
Extraction speed 2.0 X
Track quality 100.0 %
Test CRC AA116855
Copy CRC AA116855
Accurately ripped (confidence 12) [C447F858] (AR v1)
Copy OK
Track 21
Filename C:\Users\Tim\Desktop\latest EAC rip\Ofra Harnoy - 1994 - Vivaldi - Cello Sonatas\21 Sonata No. 2, RV 41 I Largo.wav
Pre-gap length 0:00:02.33
Peak level 22.7 %
Extraction speed 1.6 X
Track quality 99.9 %
Test CRC A3310BE3
Copy CRC A3310BE3
Accurately ripped (confidence 12) [5DCDC00C] (AR v1)
Copy OK
Track 22
Filename C:\Users\Tim\Desktop\latest EAC rip\Ofra Harnoy - 1994 - Vivaldi - Cello Sonatas\22 Sonata No. 2, RV 41 II Allegro.wav
Pre-gap length 0:00:01.36
Peak level 36.9 %
Extraction speed 2.2 X
Track quality 100.0 %
Test CRC C17EFA4E
Copy CRC C17EFA4E
Accurately ripped (confidence 12) [0CA0F885] (AR v1)
Copy OK
Track 23
Filename C:\Users\Tim\Desktop\latest EAC rip\Ofra Harnoy - 1994 - Vivaldi - Cello Sonatas\23 Sonata No. 2, RV 41 III Largo.wav
Pre-gap length 0:00:01.33
Peak level 15.5 %
Extraction speed 1.8 X
Track quality 99.9 %
Test CRC C375E1F6
Copy CRC C375E1F6
Accurately ripped (confidence 12) [0BE83FC0] (AR v1)
Copy OK
Track 24
Filename C:\Users\Tim\Desktop\latest EAC rip\Ofra Harnoy - 1994 - Vivaldi - Cello Sonatas\24 Sonata No. 2, RV 41 IV Allegro.wav
Pre-gap length 0:00:01.33
Peak level 29.9 %
Extraction speed 1.7 X
Track quality 99.8 %
Test CRC 90AFF96F
Copy CRC 90AFF96F
Accurately ripped (confidence 12) [EED281B7] (AR v1)
Copy OK
All tracks accurately ripped
No errors occurred
End of status report
==== Log checksum B9DA960FC19C45A5147BA66C3A6EEFDB6AB8BCE9A76A7A91F516DC28B715ADB1 ====

Содержание индексной карты (.CUE)

REM GENRE Baroque
REM DATE 1994
REM DISCID 5D101E18
REM COMMENT "ExactAudioCopy v1.0b3"
CATALOG 0000000000000
PERFORMER "Ofra Harnoy"
TITLE "Vivaldi - Cello Sonatas"
FILE "Ofra Harnoy - 1994 - Vivaldi - Cello Sonatas\01 Sonata No. 5, RV 40 I Largo.wav" WAVE
TRACK 01 AUDIO
TITLE "Sonata No. 5, RV 40 I Largo"
PERFORMER "Ofra Harnoy"
ISRC USBC19400168
INDEX 01 00:00:00
TRACK 02 AUDIO
TITLE "Sonata No. 5, RV 40 II Allegro"
PERFORMER "Ofra Harnoy"
ISRC USBC19400169
INDEX 00 03:03:38
FILE "Ofra Harnoy - 1994 - Vivaldi - Cello Sonatas\02 Sonata No. 5, RV 40 II Allegro.wav" WAVE
INDEX 01 00:00:00
TRACK 03 AUDIO
TITLE "Sonata No. 5, RV 40 III Largo"
PERFORMER "Ofra Harnoy"
ISRC USBC19400170
INDEX 00 02:52:50
FILE "Ofra Harnoy - 1994 - Vivaldi - Cello Sonatas\03 Sonata No. 5, RV 40 III Largo.wav" WAVE
INDEX 01 00:00:00
TRACK 04 AUDIO
TITLE "Sonata No. 5, RV 40 IV Allegro"
PERFORMER "Ofra Harnoy"
ISRC USBC19400171
INDEX 00 03:10:50
FILE "Ofra Harnoy - 1994 - Vivaldi - Cello Sonatas\04 Sonata No. 5, RV 40 IV Allegro.wav" WAVE
INDEX 01 00:00:00
TRACK 05 AUDIO
TITLE "Sonata No. 4, RV 45 I Largo"
PERFORMER "Ofra Harnoy"
ISRC USBC19400172
INDEX 00 01:58:50
FILE "Ofra Harnoy - 1994 - Vivaldi - Cello Sonatas\05 Sonata No. 4, RV 45 I Largo.wav" WAVE
INDEX 01 00:00:00
TRACK 06 AUDIO
TITLE "Sonata No. 4, RV 45 II Allegro"
PERFORMER "Ofra Harnoy"
ISRC USBC19400173
INDEX 00 02:33:10
FILE "Ofra Harnoy - 1994 - Vivaldi - Cello Sonatas\06 Sonata No. 4, RV 45 II Allegro.wav" WAVE
INDEX 01 00:00:00
TRACK 07 AUDIO
TITLE "Sonata No. 4, RV 45 III Largo"
PERFORMER "Ofra Harnoy"
ISRC USBC19400174
INDEX 00 02:41:48
FILE "Ofra Harnoy - 1994 - Vivaldi - Cello Sonatas\07 Sonata No. 4, RV 45 III Largo.wav" WAVE
INDEX 01 00:00:00
TRACK 08 AUDIO
TITLE "Sonata No. 4, RV 45 IV Allegro"
PERFORMER "Ofra Harnoy"
ISRC USBC19400175
INDEX 00 04:00:13
FILE "Ofra Harnoy - 1994 - Vivaldi - Cello Sonatas\08 Sonata No. 4, RV 45 IV Allegro.wav" WAVE
INDEX 01 00:00:00
TRACK 09 AUDIO
TITLE "Sonata No. 6, RV 46 I Largo"
PERFORMER "Ofra Harnoy"
ISRC USBC19400176
INDEX 00 03:20:50
FILE "Ofra Harnoy - 1994 - Vivaldi - Cello Sonatas\09 Sonata No. 6, RV 46 I Largo.wav" WAVE
INDEX 01 00:00:00
TRACK 10 AUDIO
TITLE "Sonata No. 6, RV 46 II Allegro"
PERFORMER "Ofra Harnoy"
ISRC USBC19400177
INDEX 00 02:28:50
FILE "Ofra Harnoy - 1994 - Vivaldi - Cello Sonatas\10 Sonata No. 6, RV 46 II Allegro.wav" WAVE
INDEX 01 00:00:00
TRACK 11 AUDIO
TITLE "Sonata No. 6, RV 46 III Largo"
PERFORMER "Ofra Harnoy"
ISRC USBC19400178
INDEX 00 03:04:50
FILE "Ofra Harnoy - 1994 - Vivaldi - Cello Sonatas\11 Sonata No. 6, RV 46 III Largo.wav" WAVE
INDEX 01 00:00:00
TRACK 12 AUDIO
TITLE "Sonata No. 6, RV 46 IV Allegro"
PERFORMER "Ofra Harnoy"
ISRC USBC19400179
INDEX 00 02:14:50
FILE "Ofra Harnoy - 1994 - Vivaldi - Cello Sonatas\12 Sonata No. 6, RV 46 IV Allegro.wav" WAVE
INDEX 01 00:00:00
TRACK 13 AUDIO
TITLE "Sonata No. 3, RV 43 I Largo"
PERFORMER "Ofra Harnoy"
ISRC USBC19400180
INDEX 00 02:15:50
FILE "Ofra Harnoy - 1994 - Vivaldi - Cello Sonatas\13 Sonata No. 3, RV 43 I Largo.wav" WAVE
INDEX 01 00:00:00
TRACK 14 AUDIO
TITLE "Sonata No. 3, RV 43 II Allegro"
PERFORMER "Ofra Harnoy"
ISRC USBC19400181
INDEX 00 03:08:50
FILE "Ofra Harnoy - 1994 - Vivaldi - Cello Sonatas\14 Sonata No. 3, RV 43 II Allegro.wav" WAVE
INDEX 01 00:00:00
TRACK 15 AUDIO
TITLE "Sonata No. 3, RV 43 III Largo"
PERFORMER "Ofra Harnoy"
ISRC USBC19400182
INDEX 00 03:18:50
FILE "Ofra Harnoy - 1994 - Vivaldi - Cello Sonatas\15 Sonata No. 3, RV 43 III Largo.wav" WAVE
INDEX 01 00:00:00
TRACK 16 AUDIO
TITLE "Sonata No. 3, RV 43 IV Allegro"
PERFORMER "Ofra Harnoy"
ISRC USBC19400183
INDEX 00 03:11:50
FILE "Ofra Harnoy - 1994 - Vivaldi - Cello Sonatas\16 Sonata No. 3, RV 43 IV Allegro.wav" WAVE
INDEX 01 00:00:00
TRACK 17 AUDIO
TITLE "Sonata No. 1, RV 47 I Largo"
PERFORMER "Ofra Harnoy"
ISRC USBC19400184
INDEX 00 02:52:50
FILE "Ofra Harnoy - 1994 - Vivaldi - Cello Sonatas\17 Sonata No. 1, RV 47 I Largo.wav" WAVE
INDEX 01 00:00:00
TRACK 18 AUDIO
TITLE "Sonata No. 1, RV 47 I Allegro"
PERFORMER "Ofra Harnoy"
ISRC USBC19400185
INDEX 00 03:54:50
FILE "Ofra Harnoy - 1994 - Vivaldi - Cello Sonatas\18 Sonata No. 1, RV 47 I Allegro.wav" WAVE
INDEX 01 00:00:00
TRACK 19 AUDIO
TITLE "Sonata No. 1, RV 47 II Largo"
PERFORMER "Ofra Harnoy"
ISRC USBC19400186
INDEX 00 03:22:50
FILE "Ofra Harnoy - 1994 - Vivaldi - Cello Sonatas\19 Sonata No. 1, RV 47 II Largo.wav" WAVE
INDEX 01 00:00:00
TRACK 20 AUDIO
TITLE "Sonata No. 1, RV 47 III Allegro"
PERFORMER "Ofra Harnoy"
ISRC USBC19400187
INDEX 00 02:11:50
FILE "Ofra Harnoy - 1994 - Vivaldi - Cello Sonatas\20 Sonata No. 1, RV 47 III Allegro.wav" WAVE
INDEX 01 00:00:00
TRACK 21 AUDIO
TITLE "Sonata No. 2, RV 41 I Largo"
PERFORMER "Ofra Harnoy"
ISRC USBC19400188
INDEX 00 02:06:50
FILE "Ofra Harnoy - 1994 - Vivaldi - Cello Sonatas\21 Sonata No. 2, RV 41 I Largo.wav" WAVE
INDEX 01 00:00:00
TRACK 22 AUDIO
TITLE "Sonata No. 2, RV 41 II Allegro"
PERFORMER "Ofra Harnoy"
ISRC USBC19400189
INDEX 00 02:05:10
FILE "Ofra Harnoy - 1994 - Vivaldi - Cello Sonatas\22 Sonata No. 2, RV 41 II Allegro.wav" WAVE
INDEX 01 00:00:00
TRACK 23 AUDIO
TITLE "Sonata No. 2, RV 41 III Largo"
PERFORMER "Ofra Harnoy"
ISRC USBC19400190
INDEX 00 02:34:13
FILE "Ofra Harnoy - 1994 - Vivaldi - Cello Sonatas\23 Sonata No. 2, RV 41 III Largo.wav" WAVE
INDEX 01 00:00:00
TRACK 24 AUDIO
TITLE "Sonata No. 2, RV 41 IV Allegro"
PERFORMER "Ofra Harnoy"
ISRC USBC19400191
INDEX 00 02:33:50
FILE "Ofra Harnoy - 1994 - Vivaldi - Cello Sonatas\24 Sonata No. 2, RV 41 IV Allegro.wav" WAVE
INDEX 01 00:00:00



Показать сообщения:    

Текущее время: 05-Дек 05:25

Часовой пояс: UTC + 3


Вы не можете начинать темы
Вы не можете отвечать на сообщения
Вы не можете редактировать свои сообщения
Вы не можете удалять свои сообщения
Вы не можете голосовать в опросах
Вы не можете прикреплять файлы к сообщениям
Вы не можете скачивать файлы