(Classical) И.П.Э. Хартман – Увертюры к Эленшлегеру, «Золотые рога» / J.P.E. Hartmann – Overtures & «The Golden Horns» (Bodil Udsen, Thomas Dausgaard) - 1998, FLAC (image+.cue) lossless


 

[Цитировать]

И.П.Э. Хартман – Увертюры к Эленшлегеру, «Золотые рога» / J.P.E. Hartmann – Overtures & «The Golden Horns» (Bodil Udsen, Thomas Dausgaard)
Жанр: Classical
Страна-производитель диска: Германия
Год издания диска: 1998
Издатель (лейбл): dacapo
Номер по каталогу: 8.224097
Дата записи: 1 — 2 мая 1997 г., 5 — 7 мая и 29 — 30 июня 1998 г., Копенгаген.
Аудиокодек: FLAC
Тип рипа: image+.cue
Битрейт аудио: lossless
Продолжительность: 00:56:25
Источник: odeonmusic
Наличие сканов в содержимом раздачи: да
Треклист:
Иоганн Петер Эмилий Хартман (1805 — 1900).
Музыка к сочинениям Адама Готлоба Эленшлегера.
Увертюра к «Ирсе» d-moll, op. 78 (1880? — 1881; является частью музыки к пьесе).
01. Poco andante. — Allegro risoluto, non troppo. — [Кода] [07:18].
Увертюра к «Акселю и Вальборг» e-moll, op. 57 (1856 — 1857).
02. [Романс К.Э.Ф. Вайсе «Det var ridder herr Aage...» для «Акселя и Вальборг».] Moderato assai, lugubre. — Allegro non troppo. — [Кода. Романс] [14:31].
Увертюра к «Ярлу Хакону» c-moll, op. 40 (1844; 2-я ред. с новой кодой; в 1857 к пьесе написан также антракт).
03. Allegro non troppo. — Poco più moderato. — Allegro molto. — [Кода] [09:14].
Увертюра к «Корреджо» F-dur, op. 59 (1858).
04. Moderato non troppo. — Allegro con anima. — [Кода] [13:45].
«Золотые рога» c-moll, мелодрама для голоса с оркестром, op. 11 (1832).
05. I. Moderato con passione. — II. Moderato con brio. — III. Allegro non troppo [11:21].
Исполнители:
Bodil Udsen (текст, 5).
The Danish National Radio Symphony Orchestra.
Дирижер Thomas Dausgaard.

Лог создания рипа

Exact Audio Copy V1.0 beta 3 from 29. August 2011
EAC extraction logfile from 16. March 2013, 8:45
Thomas Dausgaard / J.P.E. Hartmann - Overtures, The Golden Horns - Dausgaard
Used drive : TSSTcorpCDDVDW SH-222BB Adapter: 2 ID: 1
Read mode : Secure
Utilize accurate stream : Yes
Defeat audio cache : Yes
Make use of C2 pointers : No
Read offset correction : 6
Overread into Lead-In and Lead-Out : No
Fill up missing offset samples with silence : Yes
Delete leading and trailing silent blocks : No
Null samples used in CRC calculations : Yes
Used interface : Native Win32 interface for Win NT & 2000
Used output format : User Defined Encoder
Selected bitrate : 1024 kBit/s
Quality : High
Add ID3 tag : No
Command line compressor : C:\Program Files\Exact Audio Copy\Flac\flac.exe
Additional command line options : -8 -V -T "TITLE=%title%" -T "ARTIST=%artist%" -T "ALBUMARTIST=%albumartist%" -T "ALBUM=%albumtitle%" -T "DATE=%year%" -T "TRACKNUMBER=%tracknr%" -T "TRACKTOTAL=%numtracks%" -T "GENRE=%genre%" -T "COMMENT=%comment%" -T "PERFORMER=%albuminterpret%" -T "COMPOSER=%composer%" %source% -o %dest%
TOC of the extracted CD
Track | Start | Length | Start sector | End sector
---------------------------------------------------------
1 | 0:00.00 | 7:21.62 | 0 | 33136
2 | 7:21.62 | 14:35.00 | 33137 | 98761
3 | 21:56.62 | 9:19.00 | 98762 | 140686
4 | 31:15.62 | 13:49.00 | 140687 | 202861
5 | 45:04.62 | 11:21.13 | 202862 | 253949
Range status and errors
Selected range
Filename G:\Ripped general\[9071] J.P.E. Hartmann – Overtures, The Golden Horns – Dausgaard\J.P.E. Hartmann - Overtures, The Golden Horns - Dausgaard.wav
Peak level 100.0 %
Extraction speed 7.1 X
Range quality 100.0 %
Test CRC 761AAC97
Copy CRC 761AAC97
Copy OK
No errors occurred
AccurateRip summary
Track 1 not present in database
Track 2 not present in database
Track 3 not present in database
Track 4 not present in database
Track 5 not present in database
None of the tracks are present in the AccurateRip database
End of status report

Содержание индексной карты (.CUE)

REM GENRE Orchestral
REM DATE 1998
REM DISCID 400D3A05
REM COMMENT "ExactAudioCopy v1.0b3"
PERFORMER "Thomas Dausgaard"
TITLE "J.P.E. Hartmann – Overtures, The Golden Horns – Dausgaard"
FILE "J.P.E. Hartmann – Overtures, The Golden Horns – Dausgaard.flac" WAVE
TRACK 01 AUDIO
TITLE "Yrsa, incidental music, Op. 78 - Overture"
PERFORMER "Danish Radio Symphony Orchestra & Thomas Dausgaard"
INDEX 01 00:00:00
TRACK 02 AUDIO
TITLE "Overture to Axel og Valborg, Op. 57"
PERFORMER "Danish Radio Symphony Orchestra & Thomas Dausgaard"
INDEX 00 07:19:00
INDEX 01 07:21:62
TRACK 03 AUDIO
TITLE "Hakon Jarl, incidental music, Op. 40 - Overture"
PERFORMER "Danish Radio Symphony Orchestra & Thomas Dausgaard"
INDEX 00 21:53:00
INDEX 01 21:56:62
TRACK 04 AUDIO
TITLE "Overture to Correggio, Op. 59"
PERFORMER "Danish Radio Symphony Orchestra & Thomas Dausgaard"
INDEX 00 31:11:00
INDEX 01 31:15:62
TRACK 05 AUDIO
TITLE "Guldhornene, melodrama for reciter & orchestra, Op. 11"
PERFORMER "Danish Radio Symphony Orchestra & Thomas Dausgaard"
INDEX 00 45:01:00
INDEX 01 45:04:62
-Иоганн Петер Эмилий Хартман («Старый Хартман»).
Две симфонии (Thomas Dausgaard).
Увертюры «Ярл Хакон» и «Осенняя охота» (Jean-Pierre Wallez).



Показать сообщения:    

Текущее время: 05-Дек 07:31

Часовой пояс: UTC + 3


Вы не можете начинать темы
Вы не можете отвечать на сообщения
Вы не можете редактировать свои сообщения
Вы не можете удалять свои сообщения
Вы не можете голосовать в опросах
Вы не можете прикреплять файлы к сообщениям
Вы не можете скачивать файлы