(Classical) Harmonious families, vol. 1: J.P.E. & Emil Hartmann / И.П.Э. и Эмиль Хартманы (Kim Bak Dinitzen, Jean-Pierre Wallez) - 1999, FLAC (image+.cue) lossless


 

[Цитировать]

Harmonious families, vol. 1: J.P.E. & Emil Hartmann / И.П.Э. и Эмиль Хартманы (Kim Bak Dinitzen, Jean-Pierre Wallez)
Жанр: Classical
Страна-производитель диска: Дания?
Год издания диска: 1999
Издатель (лейбл): Danacord
Номер по каталогу: DACOCD 508
Дата записи: ноябрь 1998 г., Сеннерборг.
Аудиокодек: FLAC
Тип рипа: image+.cue
Битрейт аудио: lossless
Продолжительность: 01:10:34
Источник: odeonmusic
Наличие сканов в содержимом раздачи: да
Треклист:
Иоганн Петер Эмилий Хартман (1805 — 1900).
02. Увертюра к «Ярлу Хакону» Эленшлегера c-moll, op. 40 (1844; 2-я ред. с новой кодой; в 1857 к пьесе написан также антракт).
Allegro non troppo. — Poco più moderato. — Allegro molto. — [Кода] [09:01].
03. «Осенняя охота» (En efterårsjagt), концертная увертюра G-dur, op. 63b (1863) [09:05].
Вильгельм Эмилий Синн Хартман (Эмиль Хартман, 1836 — 1898).
01. «Воители в Гельгеланде», трагическая увертюра f-moll [по Ибсену], op. 25 (опубл. 1878).
Poco adagio. — Allegro con fuoco. — [Кода.] Allegro molto con fuoco. — Stretto. — Poco adagio [13:06].
04. «Ярл Хакон», симфоническая поэма d-moll, op. 40 (1859 — 1898; опубл. 1887) [19:10].
Виолончельный концерт d-moll, op. 26 (ок. 1879).
05. I. Allegro moderato [09:46].
06. II. Canzonetta. Andante. — [03:31].
07. III. Rondo pastorale. Allegretto. — Andantino. — Poco animato. — Più animato. — Più mosso [06:40].
Исполнители:
Kim Bak Dinitzen (виолончель).
Sønderjullands Symfoniorkester (The Danish Philharmonic Orchestra, South Jutland).
Дирижер Jean-Pierre Wallez.

Лог создания рипа

Exact Audio Copy V1.0 beta 3 from 29. August 2011
EAC extraction logfile from 8. January 2013, 12:33
Jean-Pierre Wallez / Harmonious Families V.1 - J.P.E. & Emil Hartmann – Orchestral works - Wallez
Used drive : TSSTcorpCDDVDW SH-222BB Adapter: 2 ID: 1
Read mode : Secure
Utilize accurate stream : Yes
Defeat audio cache : Yes
Make use of C2 pointers : No
Read offset correction : 6
Overread into Lead-In and Lead-Out : No
Fill up missing offset samples with silence : Yes
Delete leading and trailing silent blocks : No
Null samples used in CRC calculations : Yes
Used interface : Native Win32 interface for Win NT & 2000
Used output format : User Defined Encoder
Selected bitrate : 1024 kBit/s
Quality : High
Add ID3 tag : No
Command line compressor : C:\Program Files\Exact Audio Copy\Flac\flac.exe
Additional command line options : -8 -V -T "TITLE=%title%" -T "ARTIST=%artist%" -T "ALBUMARTIST=%albumartist%" -T "ALBUM=%albumtitle%" -T "DATE=%year%" -T "TRACKNUMBER=%tracknr%" -T "TRACKTOTAL=%numtracks%" -T "GENRE=%genre%" -T "COMMENT=%comment%" -T "PERFORMER=%albuminterpret%" -T "COMPOSER=%composer%" %source% -o %dest%
TOC of the extracted CD
Track | Start | Length | Start sector | End sector
---------------------------------------------------------
1 | 0:00.00 | 13:07.50 | 0 | 59074
2 | 13:07.50 | 9:01.62 | 59075 | 99711
3 | 22:09.37 | 9:05.55 | 99712 | 140641
4 | 31:15.17 | 19:11.48 | 140642 | 227014
5 | 50:26.65 | 9:46.07 | 227015 | 270971
6 | 60:12.72 | 3:30.73 | 270972 | 286794
7 | 63:43.70 | 6:43.52 | 286795 | 317071
Range status and errors
Selected range
Filename G:\Ripped general\[9264] Harmonious Families V.1 – J.P.E. & Emil Hartmann – Orchestral works – Wallez\Harmonious Families V.1 - J.P.E. & Emil Hartmann – Orchestral works - Wallez.wav
Peak level 98.8 %
Extraction speed 7.9 X
Range quality 100.0 %
Test CRC 0BB2B2EC
Copy CRC 0BB2B2EC
Copy OK
No errors occurred
AccurateRip summary
Track 1 not present in database
Track 2 not present in database
Track 3 not present in database
Track 4 not present in database
Track 5 not present in database
Track 6 not present in database
Track 7 not present in database
None of the tracks are present in the AccurateRip database
End of status report

Содержание индексной карты (.CUE)

REM GENRE Classical
REM DISCID 66108307
REM COMMENT "ExactAudioCopy v1.0b3"
PERFORMER "Jean-Pierre Wallez"
TITLE "Harmonious families, vol. 1 – J.P.E. & Emil Hartmann – Wallez"
FILE "Harmonious families, vol. 1 – J.P.E. & Emil Hartmann – Wallez.flac" WAVE
TRACK 01 AUDIO
TITLE "Emil Hartmann - Overture to 'Eine nordische Heerfahrt', Op. 25"
PERFORMER "Jean-Pierre Wallez"
INDEX 01 00:00:00
TRACK 02 AUDIO
TITLE "J.P.E. Hartmann - Overture to 'Hakon Jarl', Op. 40"
PERFORMER "Jean-Pierre Wallez"
INDEX 00 13:00:27
INDEX 01 13:07:50
TRACK 03 AUDIO
TITLE "J.P.E. Hartmann - 'En efterarsjagt', concert overture, Op. 63b"
PERFORMER "Jean-Pierre Wallez"
INDEX 00 22:03:57
INDEX 01 22:09:37
TRACK 04 AUDIO
TITLE "Emil Hartmann - 'Hakon Jarl', symphonic poem, Op. 40"
PERFORMER "Jean-Pierre Wallez"
INDEX 00 31:08:65
INDEX 01 31:15:17
TRACK 05 AUDIO
TITLE "Emil Hartmann - Cello Concerto in D minor, Op. 26 - I. Allegro moderato"
PERFORMER "Jean-Pierre Wallez"
INDEX 00 50:20:40
INDEX 01 50:26:65
TRACK 06 AUDIO
TITLE "Emil Hartmann - Cello Concerto in D minor, Op. 26 - II. Canzonetta. Andante"
PERFORMER "Jean-Pierre Wallez"
INDEX 00 60:11:22
INDEX 01 60:12:72
TRACK 07 AUDIO
TITLE "Emil Hartmann - Cello Concerto in D minor, Op. 26 - III. Rondo pastorale. Allegretto"
PERFORMER "Jean-Pierre Wallez"
INDEX 00 63:40:65
INDEX 01 63:43:70
-Иоганн Эрнст Хартман (Гартман) Старший.
Четыре сохранившихся симфонии (Lars Ulrik Mortensen).
Иоганн Петер Эмилий Хартман («Старый Хартман»).
Две симфонии (Thomas Dausgaard).
Четыре увертюры и «Золотые рога» (Thomas Dausgaard).
Эмиль Хартман.
Фортепианный концерт (Олег Маршев, Matthias Aeschbacher).
Концерты скрипичный, виолончельный и фортепианный (Christina Åstrand, Stanimir Todorov, Per Salo; Hannu Lintu).



Показать сообщения:    

Текущее время: 09-Дек 22:28

Часовой пояс: UTC + 3


Вы не можете начинать темы
Вы не можете отвечать на сообщения
Вы не можете редактировать свои сообщения
Вы не можете удалять свои сообщения
Вы не можете голосовать в опросах
Вы не можете прикреплять файлы к сообщениям
Вы не можете скачивать файлы