(Classical) [LP] [24/48] Leningrad Philharmonic Symphony Orchestra, Conductor Yevgeni Mravinsky (C. M. Weber - Overture to "Oberon" opera; F. Schubert - Symphony №8 Unfinished) - 1978, FLAC (tracks+.cue)


Статистика раздачи [Обновить пиров]
Размер:  363 MB   |    Зарегистрирован:  8 месяцев 17 дней   |    Скачан:  0 раз

Полного источника не было: Никогда

 
   
 
 
 

[Цитировать]

C. M. Weber - Overture to "Oberon" opera; F. Schubert - Symphony №8 - Unfinished (Leningrad Philharmonic Simphony Orchestra, Conductor Yevgeni Mravinsky)
Жанр: Classical
Носитель: LP
Год выпуска: 1978
Лейбл: Melodya (MOZG)
Страна-производитель: USSR
Аудио кодек: FLAC
Тип рипа: tracks+.cue
Формат записи: 32/192
Формат раздачи: 24/48
Продолжительность: 35.34 min
Треклист:
Yevgeni Mravinsky In Vienna
Side one:
C. M. Weber - Overture to "Oberon" Opera
01. Overture to the opera Oberon
Side two:
F. Schubert - Symphony №8 Unfinished
02. Allegro moderato
03. Andante con moto
Leningrad Philharmonic Symphony Orchestra
Recorded live at the Vienna Musicverein Hall on June 12, 1978
Источник оцифровки: автором раздачи
Код класса состояния винила: Mint
Устройство воспроизведения: Электроника ЭП 017С
Головка звукоснимателя: Audio-Technica AT95
Предварительный усилитель: Бриг-001
АЦП: VIA HD audio device
Программа-оцифровщик: Izotope RX III Advanced
Обработка: Manual

Спектр+АЧХ+Уровень записи

DR=13

foobar2000 1.1.10 / Dynamic Range Meter 1.1.1
log date: 2014-12-21 12:29:05
--------------------------------------------------------------------------------
Analyzed: Yevgeni Mravinsky / Yevgeni Mravinsky In Vienna
--------------------------------------------------------------------------------
DR Peak RMS Duration Track
--------------------------------------------------------------------------------
DR13 -2.12 dB -19.36 dB 9:04 ?-Overture to the opera Oberon
DR13 -2.15 dB -20.31 dB 14:53 ?-Allegro moderato
DR13 -2.96 dB -22.23 dB 11:37 ?-Andante con moto
--------------------------------------------------------------------------------
Number of tracks: 3
Official DR value: DR13
Samplerate: 48000 Hz
Channels: 2
Bits per sample: 24
Bitrate: 1315 kbps
Codec: FLAC
================================================================================

Back & Disc

[teatrix.ru].t19831.torrent 
Торрент: Зарегистрирован [ 2016-03-19 00:02 ] · D7486C2EE6884E469344C57560AB60335B37AE0B

Скачать .torrent

Скачать

15 KB

Статус: проверено
Скачан: 0 раз
Размер: 363 MB
terms.php



Быстрый ответ

Имя:

      
Для отправки сообщений необходимо включить JavaScript
Показать сообщения:    

Текущее время: 05-Дек 23:37

Часовой пояс: UTC + 3


Вы можете начинать темы
Вы можете отвечать на сообщения
Вы не можете редактировать свои сообщения
Вы не можете удалять свои сообщения
Вы не можете голосовать в опросах
Вы не можете прикреплять файлы к сообщениям
Вы можете скачивать файлы