(Classical) Tchaikovsky (Чайковский), Dvorak - Serenades for Strings - Rolla, Liszt Ferenc Chamber Orchestra (Hungaroton) - 1981, FLAC (tracks+.cue) lossless


 

[Цитировать]

•Пётр Ильич Чайковский•
•Antonín Dvořák•
Жанр: Classical
Страна-производитель диска: Japan
Год издания диска: 1981
Издатель (лейбл): Hungaroton
Номер по каталогу: 12357-2
Дата записи: 1981
Аудиокодек: FLAC
Тип рипа: tracks+.cue
Битрейт аудио: lossless
Источник: скачано с
Наличие сканов в содержимом раздачи: да
Треклист:
Serenade for Strings in C major, Op. 48
1. Pezzo in forma di sonatina: Andante non troppo — Allegro moderato
2. Valse: Moderato — Tempo di valse
3. Élégie: Larghetto elegiaco
4. Finale (Tema russo): Andante — Allegro con spirito
Serenade for Strings in E major (Czech: Smyčcová serenáda E dur), Op. 22
5. Moderato
6. Tempo di Valse
7. Scherzo: Vivace
8. Larghetto
9. Finale: Allegro vivace
Исполнители:
•János Rolla•
•Liszt Ferenc Chamber Orchestra•

Лог создания рипа

Exact Audio Copy V1.0 beta 3 from 29. August 2011
EAC extraction logfile from 29. June 2014, 14:18
Liszt Ferenc Chamber Orchestra, János Rolla / Tchaikovsky, Dvořák - Serenades
Used drive : Optiarc DVD RW AD-7260S Adapter: 2 ID: 0
Read mode : Secure
Utilize accurate stream : Yes
Defeat audio cache : Yes
Make use of C2 pointers : No
Read offset correction : 48
Overread into Lead-In and Lead-Out : No
Fill up missing offset samples with silence : Yes
Delete leading and trailing silent blocks : No
Null samples used in CRC calculations : Yes
Used interface : Native Win32 interface for Win NT & 2000
Gap handling : Appended to previous track
Used output format : User Defined Encoder
Selected bitrate : 1024 kBit/s
Quality : High
Add ID3 tag : No
Command line compressor : C:\Program Files (x86)\Exact Audio Copy\Flac\flac.exe
Additional command line options : -8 -V -T "ARTIST=%artist%" -T "TITLE=%title%" -T "ALBUM=%albumtitle%" -T "DATE=%year%" -T "TRACKNUMBER=%tracknr%" -T "GENRE=%genre%" -T "PERFORMER=%albuminterpret%" -T "COMPOSER=%composer%" %haslyrics%--tag-from-file=LYRICS="%lyricsfile%"%haslyrics% -T "ALBUMARTIST=%albumartist%" -T "DISCNUMBER=%cdnumber%" -T "TOTALDISCS=%totalcds%" -T "TOTALTRACKS=%numtracks%" -T "COMMENT=%comment%" %source% -o %dest%
TOC of the extracted CD
Track | Start | Length | Start sector | End sector
---------------------------------------------------------
1 | 0:00.00 | 8:46.60 | 0 | 39509
2 | 8:46.60 | 3:48.02 | 39510 | 56611
3 | 12:34.62 | 7:54.05 | 56612 | 92166
4 | 20:28.67 | 7:12.13 | 92167 | 124579
5 | 27:41.05 | 4:02.17 | 124580 | 142746
6 | 31:43.22 | 5:55.70 | 142747 | 169441
7 | 37:39.17 | 5:05.08 | 169442 | 192324
8 | 42:44.25 | 4:33.15 | 192325 | 212814
9 | 47:17.40 | 5:37.70 | 212815 | 238159
Track 1
Filename F:\Muzika\upload what\Tchaikovsky, Dvořák - Serenades - Liszt Ferenc Chamber Orchestra, János Rolla (1981) FLAC\01 Serenade in C-Major for Strings Op. 48 - I. Pezzo in forma di Sonatina.wav
Pre-gap length 0:00:02.00
Peak level 51.6 %
Extraction speed 2.8 X
Track quality 100.0 %
Test CRC C99E0E13
Copy CRC C99E0E13
Accurately ripped (confidence 1) [1474C3B3] (AR v2)
Copy OK
Track 2
Filename F:\Muzika\upload what\Tchaikovsky, Dvořák - Serenades - Liszt Ferenc Chamber Orchestra, János Rolla (1981) FLAC\02 Serenade in C-Major for Strings Op. 48 - II. Walzer.wav
Pre-gap length 0:00:02.80
Peak level 27.2 %
Extraction speed 2.9 X
Track quality 100.0 %
Test CRC A8B67C1F
Copy CRC A8B67C1F
Accurately ripped (confidence 1) [32FE51E1] (AR v2)
Copy OK
Track 3
Filename F:\Muzika\upload what\Tchaikovsky, Dvořák - Serenades - Liszt Ferenc Chamber Orchestra, János Rolla (1981) FLAC\03 Serenade in C-Major for Strings Op. 48 - III. Elegie.wav
Pre-gap length 0:00:04.96
Peak level 38.0 %
Extraction speed 3.2 X
Track quality 99.9 %
Test CRC 399BF746
Copy CRC 399BF746
Accurately ripped (confidence 1) [2083004B] (AR v2)
Copy OK
Track 4
Filename F:\Muzika\upload what\Tchaikovsky, Dvořák - Serenades - Liszt Ferenc Chamber Orchestra, János Rolla (1981) FLAC\04 Serenade in C-Major for Strings Op. 48 - IV. Finale(Tema Russo).wav
Pre-gap length 0:00:05.13
Peak level 50.1 %
Extraction speed 3.8 X
Track quality 100.0 %
Test CRC 60C5BF77
Copy CRC 60C5BF77
Accurately ripped (confidence 1) [CA639F2C] (AR v2)
Copy OK
Track 5
Filename F:\Muzika\upload what\Tchaikovsky, Dvořák - Serenades - Liszt Ferenc Chamber Orchestra, János Rolla (1981) FLAC\05 Serenade in E major Op. 22 - I. Moderato.wav
Pre-gap length 0:00:07.53
Peak level 24.6 %
Extraction speed 3.8 X
Track quality 100.0 %
Test CRC 318EAB9A
Copy CRC 318EAB9A
Accurately ripped (confidence 1) [43253A70] (AR v2)
Copy OK
Track 6
Filename F:\Muzika\upload what\Tchaikovsky, Dvořák - Serenades - Liszt Ferenc Chamber Orchestra, János Rolla (1981) FLAC\06 Serenade in E major Op. 22 - II. Tempo di Valse.wav
Peak level 41.3 %
Extraction speed 4.2 X
Track quality 100.0 %
Test CRC 58B620AC
Copy CRC 58B620AC
Accurately ripped (confidence 1) [6804CF34] (AR v2)
Copy OK
Track 7
Filename F:\Muzika\upload what\Tchaikovsky, Dvořák - Serenades - Liszt Ferenc Chamber Orchestra, János Rolla (1981) FLAC\07 Serenade in E major Op. 22 - III. Scherzo.Vivace.wav
Peak level 37.4 %
Extraction speed 3.9 X
Track quality 99.9 %
Test CRC 9C36EF35
Copy CRC 9C36EF35
Accurately ripped (confidence 1) [A886FBCF] (AR v2)
Copy OK
Track 8
Filename F:\Muzika\upload what\Tchaikovsky, Dvořák - Serenades - Liszt Ferenc Chamber Orchestra, János Rolla (1981) FLAC\08 Serenade in E major Op. 22 - IV. Largheto.wav
Pre-gap length 0:00:01.40
Peak level 30.0 %
Extraction speed 4.0 X
Track quality 99.9 %
Test CRC 530446D5
Copy CRC 530446D5
Accurately ripped (confidence 1) [B7673624] (AR v2)
Copy OK
Track 9
Filename F:\Muzika\upload what\Tchaikovsky, Dvořák - Serenades - Liszt Ferenc Chamber Orchestra, János Rolla (1981) FLAC\09 Serenade in E major Op. 22 - V. Finale.Allegro vivace.wav
Peak level 36.2 %
Extraction speed 4.7 X
Track quality 100.0 %
Test CRC 835E2011
Copy CRC 835E2011
Accurately ripped (confidence 1) [CE550718] (AR v2)
Copy OK
All tracks accurately ripped
No errors occurred
End of status report
---- CUETools DB Plugin V2.1.4
[CTDB TOCID: wiwe.QH.M8H.wwwdaV3Mi3r5Qn8-] database access error: The remote name could not be resolved: 'db.cuetools.net'
==== Log checksum F19C5E80849AC29D35747A122F6519E22C9166D937D2695DD1192A5E5AF0ACFE ====

Содержание индексной карты (.CUE)

REM GENRE Classical
REM DATE 1981
REM DISCID 7C0C6709
REM COMMENT "ExactAudioCopy v1.0b3"
PERFORMER "Liszt Ferenc Chamber Orchestra, Jбnos Rolla"
TITLE "Tchaikovsky, Dvoшбk - Serenades"
FILE "01 Serenade in C-Major for Strings Op. 48 - I. Pezzo in forma di Sonatina.wav" WAVE
TRACK 01 AUDIO
TITLE "Serenade in C-Major for Strings Op. 48 - I. Pezzo in forma di Sonatina"
PERFORMER "Liszt Ferenc Chamber Orchestra, Jбnos Rolla"
INDEX 01 00:00:00
TRACK 02 AUDIO
TITLE "Serenade in C-Major for Strings Op. 48 - II. Walzer"
PERFORMER "Liszt Ferenc Chamber Orchestra, Jбnos Rolla"
INDEX 00 08:44:00
FILE "02 Serenade in C-Major for Strings Op. 48 - II. Walzer.wav" WAVE
INDEX 01 00:00:00
TRACK 03 AUDIO
TITLE "Serenade in C-Major for Strings Op. 48 - III. Elegie"
PERFORMER "Liszt Ferenc Chamber Orchestra, Jбnos Rolla"
INDEX 00 03:43:05
FILE "03 Serenade in C-Major for Strings Op. 48 - III. Elegie.wav" WAVE
INDEX 01 00:00:00
TRACK 04 AUDIO
TITLE "Serenade in C-Major for Strings Op. 48 - IV. Finale(Tema Russo)"
PERFORMER "Liszt Ferenc Chamber Orchestra, Jбnos Rolla"
INDEX 00 07:48:70
FILE "04 Serenade in C-Major for Strings Op. 48 - IV. Finale(Tema Russo).wav" WAVE
INDEX 01 00:00:00
TRACK 05 AUDIO
TITLE "Serenade in E major Op. 22 - I. Moderato"
PERFORMER "Liszt Ferenc Chamber Orchestra, Jбnos Rolla"
INDEX 00 07:04:48
FILE "05 Serenade in E major Op. 22 - I. Moderato.wav" WAVE
INDEX 01 00:00:00
FILE "06 Serenade in E major Op. 22 - II. Tempo di Valse.wav" WAVE
TRACK 06 AUDIO
TITLE "Serenade in E major Op. 22 - II. Tempo di Valse"
PERFORMER "Liszt Ferenc Chamber Orchestra, Jбnos Rolla"
INDEX 01 00:00:00
FILE "07 Serenade in E major Op. 22 - III. Scherzo.Vivace.wav" WAVE
TRACK 07 AUDIO
TITLE "Serenade in E major Op. 22 - III. Scherzo.Vivace"
PERFORMER "Liszt Ferenc Chamber Orchestra, Jбnos Rolla"
INDEX 01 00:00:00
TRACK 08 AUDIO
TITLE "Serenade in E major Op. 22 - IV. Largheto"
PERFORMER "Liszt Ferenc Chamber Orchestra, Jбnos Rolla"
INDEX 00 05:03:53
FILE "08 Serenade in E major Op. 22 - IV. Largheto.wav" WAVE
INDEX 01 00:00:00
FILE "09 Serenade in E major Op. 22 - V. Finale.Allegro vivace.wav" WAVE
TRACK 09 AUDIO
TITLE "Serenade in E major Op. 22 - V. Finale.Allegro vivace"
PERFORMER "Liszt Ferenc Chamber Orchestra, Jбnos Rolla"
INDEX 01 00:00:00



Показать сообщения:    

Текущее время: 05-Дек 19:39

Часовой пояс: UTC + 3


Вы не можете начинать темы
Вы не можете отвечать на сообщения
Вы не можете редактировать свои сообщения
Вы не можете удалять свои сообщения
Вы не можете голосовать в опросах
Вы не можете прикреплять файлы к сообщениям
Вы не можете скачивать файлы