(Orchestral) Markevitch - Musica de Espana: Ravel - Bolero | Chabrier - Espana | Granados - Danza espanolas • Goyescas • Zapateado | Albeniz - Catalonia | Falla - El amor brujo - 2006, FLAC (image+.cue) lossless


 

[Цитировать]

Musica de España
Ravel • Chabrier • Granados • Albéniz • Falla
Spanish RTV Orchestra - Igor Markevitch
----- Жанр: Orchestral
Страна-производитель диска: Japan
Год издания диска: 2006
Издатель (лейбл): Decca
Дата записи: 1967/68
Аудиокодек: FLAC
Тип рипа: image+.cue
Битрейт аудио: lossless
Продолжительность: 72'26''
Источник: собственный рип
Наличие сканов в содержимом раздачи: да
Треклист:
[01] M.Ravel - Boléro
[02] E.Chabrier - España
[03] E.Granados - Danza españolas: No.4 Villanesca
[04] No.8 Asturiana
[05] No.9 Mazurka
[06] 'Goyescas' - Intermezzo
[07] 'Zapateado' (from 6 pieces on spanish folksongs)
[08] I.Albéniz - Catalonia
[09] M. de Falla - El amor brujo: Introductión y escena
[10] En la cueva
[11] Canción del amor dolido
[12] El aparecido - Danse de la Frayeur
[13] El circulo mágico
[14] A media noche - Danza ritual del fuego
[15] Escana - Canción del fuego fauto
[16] Pantomime
[17] Danza del juego amor
[18] Final
Исполнители:
Inés Rivadeneyra - mezzo-soprano [9-18]
Spanish RTV Orchestra - Igor Markevitch-

Лог создания рипа

Exact Audio Copy V1.0 beta 3 from 29. August 2011
EAC extraction logfile from 11. December 2014, 20:49
RTVE Symphony Orchestra - Igor Markevitch / Markevitch - Musica de Espana
Used drive : HL-DT-STDVD+-RW GU90N Adapter: 0 ID: 0
Read mode : Secure
Utilize accurate stream : Yes
Defeat audio cache : Yes
Make use of C2 pointers : No
Read offset correction : 102
Overread into Lead-In and Lead-Out : No
Fill up missing offset samples with silence : Yes
Delete leading and trailing silent blocks : No
Null samples used in CRC calculations : Yes
Used interface : Native Win32 interface for Win NT & 2000
Used output format : User Defined Encoder
Selected bitrate : 1024 kBit/s
Quality : High
Add ID3 tag : No
Command line compressor : C:\Program Files (x86)\FLAC\flac.exe
Additional command line options : -T "COMMENT=rip by el coronel" -8 -V %source%
TOC of the extracted CD
Track | Start | Length | Start sector | End sector
---------------------------------------------------------
1 | 0:00.00 | 15:26.00 | 0 | 69449
2 | 15:26.00 | 5:44.50 | 69450 | 95299
3 | 21:10.50 | 5:38.14 | 95300 | 120663
4 | 26:48.64 | 4:37.01 | 120664 | 141439
5 | 31:25.65 | 3:01.00 | 141440 | 155014
6 | 34:26.65 | 4:52.01 | 155015 | 176915
7 | 39:18.66 | 2:06.74 | 176916 | 186439
8 | 41:25.65 | 5:59.35 | 186440 | 213399
9 | 47:25.25 | 0:32.66 | 213400 | 215865
10 | 47:58.16 | 2:04.21 | 215866 | 225186
11 | 50:02.37 | 1:30.43 | 225187 | 231979
12 | 51:33.05 | 2:03.20 | 231980 | 241224
13 | 53:36.25 | 2:22.74 | 241225 | 251948
14 | 55:59.24 | 4:17.01 | 251949 | 271224
15 | 60:16.25 | 2:43.25 | 271225 | 283474
16 | 62:59.50 | 5:20.50 | 283475 | 307524
17 | 68:20.25 | 2:46.05 | 307525 | 319979
18 | 71:06.30 | 1:19.45 | 319980 | 325949
Range status and errors
Selected range
Filename F:\Music\Markevitch - Spanish music (Falla, Ravel, Franados, Chabrier, Albeniz)\CD.wav
Peak level 100.0 %
Extraction speed 5.2 X
Range quality 100.0 %
Test CRC 66ADAD0D
Copy CRC 66ADAD0D
Copy OK
No errors occurred
AccurateRip summary
Track 1 accurately ripped (confidence 2) [E16D6644] (AR v2)
Track 2 accurately ripped (confidence 2) [E8207878] (AR v2)
Track 3 accurately ripped (confidence 2) [F0B932FA] (AR v2)
Track 4 accurately ripped (confidence 2) [9D7A13F2] (AR v2)
Track 5 accurately ripped (confidence 2) [FAE2E8E6] (AR v2)
Track 6 accurately ripped (confidence 2) [82E4A93A] (AR v2)
Track 7 accurately ripped (confidence 2) [E54EE687] (AR v2)
Track 8 accurately ripped (confidence 2) [7E2A6808] (AR v2)
Track 9 accurately ripped (confidence 2) [A270DA33] (AR v2)
Track 10 accurately ripped (confidence 2) [24386FEA] (AR v2)
Track 11 accurately ripped (confidence 2) [26B20E78] (AR v2)
Track 12 accurately ripped (confidence 2) [0F8C8F86] (AR v2)
Track 13 accurately ripped (confidence 2) [5BB0D3AC] (AR v2)
Track 14 accurately ripped (confidence 2) [F4ECCC8D] (AR v2)
Track 15 accurately ripped (confidence 2) [27BE9A22] (AR v2)
Track 16 accurately ripped (confidence 2) [634B8669] (AR v2)
Track 17 accurately ripped (confidence 2) [AF42CB7C] (AR v2)
Track 18 accurately ripped (confidence 2) [8DEF0303] (AR v2)
All tracks accurately ripped
End of status report
==== Log checksum F9CD444ECEF8CEA2EE6B2FAAB4E3E83F3C988791433CADF89E05FB702CD99A2F ====

Содержание индексной карты (.CUE)

REM GENRE Classical
REM DATE 2006
REM DISCID 0C10FA12
REM COMMENT "ExactAudioCopy v1.0b3"
PERFORMER "RTVE Symphony Orchestra - Igor Markevitch"
TITLE "Markevitch - Musica de Espana"
FILE "CD.flac" WAVE
TRACK 01 AUDIO
TITLE "M.Ravel - 'Bolero'"
PERFORMER "RTVE Symphony Orchestra - Igor Markevitch"
ISRC 000000000000
INDEX 01 00:00:00
TRACK 02 AUDIO
TITLE "E.Chabrier - 'Espana'"
PERFORMER "RTVE Symphony Orchestra - Igor Markevitch"
ISRC 000000000000
INDEX 00 15:20:25
INDEX 01 15:26:00
TRACK 03 AUDIO
TITLE "E.Granados - Danza espanolas: No.4 Villanesca"
PERFORMER "RTVE Symphony Orchestra - Igor Markevitch"
ISRC 000000000000
INDEX 00 21:06:00
INDEX 01 21:10:50
TRACK 04 AUDIO
TITLE "No.8 Asturiana"
PERFORMER "RTVE Symphony Orchestra - Igor Markevitch"
ISRC 000000000000
INDEX 00 26:46:25
INDEX 01 26:48:64
TRACK 05 AUDIO
TITLE "No.9 Mazurka"
PERFORMER "RTVE Symphony Orchestra - Igor Markevitch"
ISRC 000000000000
INDEX 00 31:22:40
INDEX 01 31:25:65
TRACK 06 AUDIO
TITLE "'Goyescas' - Intermezzo"
PERFORMER "RTVE Symphony Orchestra - Igor Markevitch"
ISRC 000000000000
INDEX 00 34:22:65
INDEX 01 34:26:65
TRACK 07 AUDIO
TITLE "'Zapateado' (from 6 pieces on spanish folksongs)"
PERFORMER "RTVE Symphony Orchestra - Igor Markevitch"
ISRC 000000000000
INDEX 01 39:18:66
TRACK 08 AUDIO
TITLE "I.Albeniz - 'Catalonia'"
PERFORMER "RTVE Symphony Orchestra - Igor Markevitch"
ISRC 000000000000
INDEX 00 41:23:00
INDEX 01 41:25:65
TRACK 09 AUDIO
TITLE "M. de Falla - 'El amor brujo': Introduction y escena"
PERFORMER "RTVE Symphony Orchestra - Igor Markevitch"
ISRC 000000000000
INDEX 00 47:19:25
INDEX 01 47:25:25
TRACK 10 AUDIO
TITLE "En la cueva"
PERFORMER "RTVE Symphony Orchestra - Igor Markevitch"
ISRC 000000000000
INDEX 01 47:58:16
TRACK 11 AUDIO
TITLE "Cancion del amor dolido"
PERFORMER "RTVE Symphony Orchestra - Igor Markevitch"
ISRC 000000000000
INDEX 01 50:02:37
TRACK 12 AUDIO
TITLE "El aparecido - Danse de la Frayeur"
PERFORMER "RTVE Symphony Orchestra - Igor Markevitch"
ISRC 000000000000
INDEX 01 51:33:05
TRACK 13 AUDIO
TITLE "El circulo magico"
PERFORMER "RTVE Symphony Orchestra - Igor Markevitch"
ISRC 000000000000
INDEX 00 53:35:25
INDEX 01 53:36:25
TRACK 14 AUDIO
TITLE "A media noche - Danza ritual del fuego"
PERFORMER "RTVE Symphony Orchestra - Igor Markevitch"
ISRC 000000000000
INDEX 01 55:59:24
TRACK 15 AUDIO
TITLE "Escana - Cancion del fuego fauto"
PERFORMER "RTVE Symphony Orchestra - Igor Markevitch"
ISRC 000000000000
INDEX 00 60:15:25
INDEX 01 60:16:25
TRACK 16 AUDIO
TITLE "Pantomome"
PERFORMER "RTVE Symphony Orchestra - Igor Markevitch"
ISRC 000000000000
INDEX 01 62:59:50
TRACK 17 AUDIO
TITLE "Danza del juego amor"
PERFORMER "RTVE Symphony Orchestra - Igor Markevitch"
ISRC 000000000000
INDEX 01 68:20:25
TRACK 18 AUDIO
TITLE "Final"
PERFORMER "RTVE Symphony Orchestra - Igor Markevitch"
ISRC 000000000000
INDEX 01 71:06:30



Показать сообщения:    

Текущее время: 09-Дек 08:46

Часовой пояс: UTC + 3


Вы не можете начинать темы
Вы не можете отвечать на сообщения
Вы не можете редактировать свои сообщения
Вы не можете удалять свои сообщения
Вы не можете голосовать в опросах
Вы не можете прикреплять файлы к сообщениям
Вы не можете скачивать файлы