(Classical) [LP] [24/48] Claudio Monteverdi - Magnificat; Madrigals (Madrigal Ensemble) - 1981, FLAC (tracks+.cue)


Статистика раздачи [Обновить пиров]
Размер:  502 MB   |    Зарегистрирован:  8 месяцев 16 дней   |    Скачан:  0 раз

Полного источника не было: Никогда

Личеров:  3  [  0 KB/s  ]   Подробная статистика пиров
 
   
 
 
 

[Цитировать]

Claudio Monteverdi - Magnificat; Madrigals
"Madrigal" Ensemble

Жанр: Classical
Носитель: LP
Год выпуска: 1981
Лейбл: Melodya (MOZG)
Страна-производитель: USSR
Аудио кодек: FLAC
Тип рипа: tracks+.cue
Формат записи: 32/192
Формат раздачи: 24/48
Продолжительность: 49.11 min
Источник оцифровки: автором раздачи
Код класса состояния винила: Mint
Устройство воспроизведения: Электроника ЭП 017С
Головка звукоснимателя: Audio-Technica AT95
Предварительный усилитель: Бриг-001
АЦП: VIA HD audio device
Программа-оцифровщик: Izotope RX III Advanced
Обработка: Manual
Треклист:
Claudio Monteverdi
Side one:
01. Magnificat
Magnificat
Anima mea
Et exultavit
Quia respexit
Quia fecit
Et misericordia
Fecit potentiam
Madrigals
02. Sfogava con le stelle
Side two:
03. Gira il nemico insidioso
04. O com'e gran martire
05. Non si levev'ancora
06. Lamento della Ninfa
Madrigal Ensemble

Спектр+АЧХ+Уровень записи

DR=12

foobar2000 1.1.10 / Dynamic Range Meter 1.1.1
log date: 2014-12-21 18:52:28
--------------------------------------------------------------------------------
Analyzed: "Madrigal" / Magnificat; Madrigals
--------------------------------------------------------------------------------
DR Peak RMS Duration Track
--------------------------------------------------------------------------------
DR12 -1.42 dB -19.88 dB 21:51 ?-Magnificat
DR11 -3.10 dB -20.25 dB 3:30 ?-Sfogava con le stelle
DR14 -0.10 dB -20.66 dB 7:10 ?-Gira il nemico insidioso
DR12 -3.30 dB -19.35 dB 2:14 ?-O com'e gran martire
DR11 -2.73 dB -18.32 dB 8:03 ?-Non si levev'ancora
DR14 -1.82 dB -20.64 dB 6:22 ?-Lamento della Ninfa
--------------------------------------------------------------------------------
Number of tracks: 6
Official DR value: DR12
Samplerate: 48000 Hz
Channels: 2
Bits per sample: 24
Bitrate: 1394 kbps
Codec: FLAC
================================================================================

Back & Disc

[teatrix.ru].t19840.torrent 
Торрент: Зарегистрирован [ 2016-03-19 00:19 ] · 52CC504449446FC4142D3A1C09BDCD2C85C82743

Скачать .torrent

Скачать

21 KB

Статус: проверено
Скачан: 0 раз
Размер: 502 MB
terms.php



Быстрый ответ

Имя:

      
Для отправки сообщений необходимо включить JavaScript
Показать сообщения:    

Текущее время: 04-Дек 04:55

Часовой пояс: UTC + 3


Вы можете начинать темы
Вы можете отвечать на сообщения
Вы не можете редактировать свои сообщения
Вы не можете удалять свои сообщения
Вы не можете голосовать в опросах
Вы не можете прикреплять файлы к сообщениям
Вы можете скачивать файлы