(Classical) Handel, Bach, Telemann - Sonatas for flute and continuo - Sharon Bezaly, Terence Charlston, Charles Medlam - 2008, FLAC (image+.cue) lossless


 

[Цитировать]

Handel, Bach, Telemann - Sonatas for flute and continuo - Sharon Bezaly, Terence Charlston, Charles Medlam
Жанр: Classical
Страна-производитель диска: Sweden
Год издания диска: 2008
Издатель (лейбл): BIS
Номер по каталогу: BIS-CD-1689
Дата записи: 2006, 2007
Аудиокодек: FLAC
Тип рипа: image+.cue
Битрейт аудио: lossless
Продолжительность: 67:46
Источник: собственный рип
Наличие сканов в содержимом раздачи: да
Треклист:
Georg Friedrich Handel (1685–1759)
[1]-[7] Sonata in B minor for flute and continuo, HWV 367b
Johann Sebastian Bach (1685-1750)
[8]-[11] Sonata in E minor for flute and continuo, BWV 1034
[12]-[14] Sonata in A major for flute and harpsichord, BWV 1032
completed by Terence Charlston
[15]-[18] Sonata in E major for flute and continuo, BWV 1035
[19]-[21] Sonata in E flat major for flute and harpsichord, BWV 1031
Georg Philipp Telemann (1681–1767)
[22]-[24] Sonata in F major for flute and continuo, TWV 41:F4
Исполнители:
Sharon Bezaly flute
Terence Charlston harpsichord
Charles Medlam bass viol

Лог создания рипа

Exact Audio Copy V1.0 beta 3 from 29. August 2011
EAC extraction logfile from 18. December 2014, 18:07
Sharon Bezaly, Terence Charlston, Charles Medlam / Barocking Together
Used drive : HL-DT-STDVDRRW GWA-4164B Adapter: 5 ID: 0
Read mode : Secure
Utilize accurate stream : Yes
Defeat audio cache : Yes
Make use of C2 pointers : No
Read offset correction : 102
Overread into Lead-In and Lead-Out : No
Fill up missing offset samples with silence : Yes
Delete leading and trailing silent blocks : No
Null samples used in CRC calculations : Yes
Used interface : Native Win32 interface for Win NT & 2000
Used output format : User Defined Encoder
Selected bitrate : 896 kBit/s
Quality : High
Add ID3 tag : No
Command line compressor : C:\Program Files\Exact Audio Copy\FLAC\FLAC.EXE
Additional command line options : -V -8 %source%
TOC of the extracted CD
Track | Start | Length | Start sector | End sector
---------------------------------------------------------
1 | 0:00.00 | 2:06.45 | 0 | 9494
2 | 2:06.45 | 3:02.33 | 9495 | 23177
3 | 5:09.03 | 1:50.59 | 23178 | 31486
4 | 6:59.62 | 1:13.02 | 31487 | 36963
5 | 8:12.64 | 1:41.05 | 36964 | 44543
6 | 9:53.69 | 2:34.49 | 44544 | 56142
7 | 12:28.43 | 1:42.48 | 56143 | 63840
8 | 14:11.16 | 2:40.20 | 63841 | 75860
9 | 16:51.36 | 2:39.52 | 75861 | 87837
10 | 19:31.13 | 3:17.03 | 87838 | 102615
11 | 22:48.16 | 4:37.07 | 102616 | 123397
12 | 27:25.23 | 5:09.20 | 123398 | 146592
13 | 32:34.43 | 2:47.74 | 146593 | 159191
14 | 35:22.42 | 4:26.27 | 159192 | 179168
15 | 39:48.69 | 2:16.54 | 179169 | 189422
16 | 42:05.48 | 2:55.23 | 189423 | 202570
17 | 45:00.71 | 3:08.00 | 202571 | 216670
18 | 48:08.71 | 3:12.60 | 216671 | 231130
19 | 51:21.56 | 3:35.32 | 231131 | 247287
20 | 54:57.13 | 2:09.20 | 247288 | 256982
21 | 57:06.33 | 4:43.57 | 256983 | 278264
22 | 61:50.15 | 2:10.64 | 278265 | 288078
23 | 64:01.04 | 1:32.32 | 288079 | 295010
24 | 65:33.36 | 2:12.39 | 295011 | 304949
Range status and errors
Selected range
Filename D:\temp\Music\BIS-CD-1689 - Barocking Together - Sharon Bezaly, London Baroque\Barocking Together.wav
Peak level 83.9 %
Extraction speed 3.1 X
Range quality 99.9 %
Test CRC 56C820CA
Copy CRC 56C820CA
Copy OK
No errors occurred
AccurateRip summary
Track 1 accurately ripped (confidence 5) [0981B296] (AR v2)
Track 2 accurately ripped (confidence 5) [864347E1] (AR v2)
Track 3 accurately ripped (confidence 5) [AF757FE1] (AR v2)
Track 4 accurately ripped (confidence 5) [67FB1E10] (AR v2)
Track 5 accurately ripped (confidence 5) [D8D84D9D] (AR v2)
Track 6 accurately ripped (confidence 5) [B055F2FE] (AR v2)
Track 7 accurately ripped (confidence 5) [36C45F6F] (AR v2)
Track 8 accurately ripped (confidence 5) [C7CC63F0] (AR v2)
Track 9 accurately ripped (confidence 5) [437AF626] (AR v2)
Track 10 accurately ripped (confidence 5) [B3274CE9] (AR v2)
Track 11 accurately ripped (confidence 5) [17068DF5] (AR v2)
Track 12 accurately ripped (confidence 5) [7C0FC42F] (AR v2)
Track 13 accurately ripped (confidence 5) [1C906F7A] (AR v2)
Track 14 accurately ripped (confidence 5) [605B1554] (AR v2)
Track 15 accurately ripped (confidence 5) [24E23E75] (AR v2)
Track 16 accurately ripped (confidence 5) [2D96738D] (AR v2)
Track 17 accurately ripped (confidence 5) [1D58789C] (AR v2)
Track 18 accurately ripped (confidence 5) [A2353EC4] (AR v2)
Track 19 accurately ripped (confidence 5) [459ECBB1] (AR v2)
Track 20 accurately ripped (confidence 5) [16149235] (AR v2)
Track 21 accurately ripped (confidence 5) [A76054B7] (AR v2)
Track 22 accurately ripped (confidence 5) [6C58B044] (AR v2)
Track 23 accurately ripped (confidence 5) [6C82A1D9] (AR v2)
Track 24 accurately ripped (confidence 5) [1FD4A400] (AR v2)
All tracks accurately ripped
End of status report
==== Log checksum 62774BBED92A33298D69A11C3CE039562A93AEA16724C8C285FD24BFEA37B0E1 ====



Показать сообщения:    

Текущее время: 10-Дек 21:30

Часовой пояс: UTC + 3


Вы не можете начинать темы
Вы не можете отвечать на сообщения
Вы не можете редактировать свои сообщения
Вы не можете удалять свои сообщения
Вы не можете голосовать в опросах
Вы не можете прикреплять файлы к сообщениям
Вы не можете скачивать файлы