(Baroque pieces de viole) Marin Marais - Suitte d'un Gout Etranger (Pieces de Viole du IV Livre, 1717) [2CD] (Jordi Savall, Pierre Hantai, Philippe Pierlot, Andrew Lawrence-King) - 2007, FLAC (image+.cue) lossless


 

[Цитировать]

Marin Marais - Suitte d'un Gout Etranger (Pieces de Viole du IV Livre, 1717)

Жанр: Baroque pieces de viole
Страна-производитель диска: Made in Austria
Год издания диска: 2007
Издатель (лейбл): AliaVox
Номер по каталогу: AVSA9851 A,B
Дата записи: 2006
Аудиокодек: FLAC
Тип рипа: image+.cue
Битрейт аудио: lossless
Продолжительность: CD1 47:59 + CD2 56:39
Источник: релизер
сайт-источник/ник/другое: Ice
Наличие сканов в содержимом раздачи: да
Эта же запись SACD: http://teatrix.ru/viewtopic.php?t=3779323
Треклист:

скрытый текст

CD1

скрытый текст

01. Marche Tartare, IV. 55 [0:02:11.21]
02. Allemande, IV. 56 [0:02:11.33]
03. Sarabande, IV. 57 [0:02:50.70]
04. La Tartarine, IV. 58 [0:00:57.11]
05. Double, IV. 59 [0:01:12.43]
06. Gavotte, IV. 60 [0:01:42.43]
07. Feste Champetre, IV. 61 [0:05:45.39]
08. Gigue la Fleselle, IV. 62 [0:02:26.02]
09. Rondeau le Bijou, IV. 63 [0:05:58.48]
10. Le Tourbillon, IV. 64 [0:01:39.66]
11. L'Uniforme, IV. 65 [0:01:24.72]
12. Suitte, IV. 66 [0:00:56.49]
13. Suitte, IV. 67 [0:02:24.08]
14. L'Ameriquaine, IV. 68 [0:04:21.09]
15. Allemande pour le Sujet et Gigue pour [0:02:36.61]
16. Allemande l'Asmatique, IV. 70 [0:01:41.45]
17. La Tourneuse, IV. 71 [0:02:36.34]
18. Muzette, IV. 72 [0:05:00.66]
CD2

скрытый текст

01. Caprice ou Sonate, IV. 73 [0:05:29.11]
02. Le Labyrinthe, IV. 74 [0:10:51.36]
03. La Sauterelle, IV. 75 [0:02:33.74]
04. La Fougade, IV. 76 [0:04:06.08]
05. Allemande la Bizare, IV. 77 [0:02:42.51]
06. La Minaudiere, IV. 78 [0:01:56.69]
07. Allemande la Singuliere, IV. 7 [0:02:34.05]
08. L'Arabesque, IV. 80 [0:04:49.16]
09. Allemande la Superbe, IV. 81 [0:03:01.06]
10. La Reveuse, IV. 82 [0:07:39.36]
11. Marche, IV. 83 [0:02:01.54]
12. Gigue, IV. 84 [0:01:20.11]
13. Piece Luthee, IV. 85 [0:01:42.25]
14. Gigue la Caustique, IV. 86 [0:01:53.30]
15. Le Badinage, IV. 87 [0:03:55.70]
Исполнители:

скрытый текст

Marin Marais (1656-1728)
Suitte d'un Gout Etranger
Pieces de Viole du IV Livre, 1717
Jordi Savall : Basse de Viole
Pierre Hantai : Clavecin
Philippe Pierlot : Basse de Viole
Rolf Lislevand, Xavier Diaz-Latorre : Theorbes et Guitares
Andrew Lawrence-King : Harpe "di tre ordine"
Pedro Estevan : Percussion
Recording : 21 & 31 August, 1, 7, 8 September 2006, Saint- Michel,
Thierache (Aisne-France)
Original Release Date: January 16, 2007
Лог создания рипа
CD1

скрытый текст

Exact Audio Copy V1.0 beta 3 from 29. August 2011
EAC extraction logfile from 7. March 2012, 21:22
1-2 : Savall, Hantai, Pierlot, Lislevand, Laurence-King, Estevan / Marin Marias: Pieces de Viole du IV Livre, 1717
Used drive : TSSTcorpCDDVDW SE-S224Q Adapter: 1 ID: 0
Read mode : Secure
Utilize accurate stream : Yes
Defeat audio cache : Yes
Make use of C2 pointers : No
Read offset correction : 6
Overread into Lead-In and Lead-Out : No
Fill up missing offset samples with silence : Yes
Delete leading and trailing silent blocks : No
Null samples used in CRC calculations : Yes
Used interface : Native Win32 interface for Win NT & 2000
Used output format : User Defined Encoder
Selected bitrate : 896 kBit/s
Quality : High
Add ID3 tag : No
Command line compressor : C:\Program Files\Exact Audio Copy\FLAC\FLAC.EXE
Additional command line options : -6 -V -T "ARTIST=%artist%" -T "TITLE=%title%" -T "ALBUM=%albumtitle%" -T "DATE=%year%" -T "TRACKNUMBER=%tracknr%" -T "GENRE=%genre%" -T "COMMENT=%comment%" -T "BAND=%albuminterpret%" -T "ALBUMARTIST=%albuminterpret%" -T "COMPOSER=%composer%" %haslyrics%--tag-from-file=LYRICS="%lyricsfile%"%haslyrics% -T "DISCNUMBER=%cdnumber%" -T "TOTALDISCS=%totalcds%" -T "TOTALTRACKS=%numtracks%" %hascover%--picture="%coverfile%"%hascover% %source% -o %dest%
TOC of the extracted CD
Track | Start | Length | Start sector | End sector
---------------------------------------------------------
1 | 0:00.00 | 2:11.21 | 0 | 9845
2 | 2:11.21 | 2:11.33 | 9846 | 19703
3 | 4:22.54 | 2:50.70 | 19704 | 32523
4 | 7:13.49 | 0:57.11 | 32524 | 36809
5 | 8:10.60 | 1:12.43 | 36810 | 42252
6 | 9:23.28 | 1:42.43 | 42253 | 49945
7 | 11:05.71 | 5:45.39 | 49946 | 75859
8 | 16:51.35 | 2:26.02 | 75860 | 86811
9 | 19:17.37 | 5:58.48 | 86812 | 113709
10 | 25:16.10 | 1:39.66 | 113710 | 121200
11 | 26:56.01 | 1:24.72 | 121201 | 127572
12 | 28:20.73 | 0:56.49 | 127573 | 131821
13 | 29:17.47 | 2:24.08 | 131822 | 142629
14 | 31:41.55 | 4:21.09 | 142630 | 162213
15 | 36:02.64 | 2:36.61 | 162214 | 173974
16 | 38:39.50 | 1:41.45 | 173975 | 181594
17 | 40:21.20 | 2:36.34 | 181595 | 193328
18 | 42:57.54 | 5:00.66 | 193329 | 215894
Range status and errors
Selected range
Filename J:\ICE\MM.PDVIV.JS\1-2 - Savall, Hantai, Pierlot, Lislevand, Laurence-King, Estevan - Marin Marias- Pieces de Viole du IV Livre, 1717.wav
Peak level 98.3 %
Extraction speed 7.3 X
Range quality 100.0 %
Test CRC B0BE0C1D
Copy CRC B0BE0C1D
Copy OK
No errors occurred
AccurateRip summary
Track 1 accurately ripped (confidence 2) [7029EE4C] (AR v2)
Track 2 accurately ripped (confidence 2) [B3695B27] (AR v2)
Track 3 accurately ripped (confidence 2) [09ECF6FC] (AR v2)
Track 4 accurately ripped (confidence 2) [19FF285E] (AR v2)
Track 5 accurately ripped (confidence 2) [B3AD241A] (AR v2)
Track 6 accurately ripped (confidence 2) [18EE1379] (AR v2)
Track 7 accurately ripped (confidence 2) [A2FFCB3A] (AR v2)
Track 8 accurately ripped (confidence 2) [3275BF0C] (AR v2)
Track 9 accurately ripped (confidence 2) [72B8FB94] (AR v2)
Track 10 accurately ripped (confidence 2) [2D26DC01] (AR v2)
Track 11 accurately ripped (confidence 2) [436EEF8E] (AR v2)
Track 12 accurately ripped (confidence 2) [61CEE9DE] (AR v2)
Track 13 accurately ripped (confidence 2) [254D9E20] (AR v2)
Track 14 accurately ripped (confidence 2) [2A86A4EA] (AR v2)
Track 15 accurately ripped (confidence 2) [25C8BBBB] (AR v2)
Track 16 accurately ripped (confidence 2) [7EEFE938] (AR v2)
Track 17 accurately ripped (confidence 2) [76E1C949] (AR v2)
Track 18 accurately ripped (confidence 12) [7AF188F7] (AR v1)
All tracks accurately ripped
End of status report
---- CUETools DB Plugin V2.1.3
[CTDB TOCID: oKA_d30B7PhMflV1msFTURkyDIA-] found, Submit result: oKA_d30B7PhMflV1msFTURkyDIA- has been confirmed
[946919d9] (8/8) Accurately ripped
==== Log checksum 6024BFE24CF68D37D0FB8A986985D7D412354E3277DAF46003D37522529D1883 ====
CD2

скрытый текст

Exact Audio Copy V1.0 beta 3 from 29. August 2011
EAC extraction logfile from 7. March 2012, 22:05
2-2 : Savall, Hantai, Pierlot, Lislevand, Lawrence-King / Marin Marias: Pieces de Viole du IV Livre,1717
Used drive : TSSTcorpCDDVDW SE-S224Q Adapter: 1 ID: 0
Read mode : Secure
Utilize accurate stream : Yes
Defeat audio cache : Yes
Make use of C2 pointers : No
Read offset correction : 6
Overread into Lead-In and Lead-Out : No
Fill up missing offset samples with silence : Yes
Delete leading and trailing silent blocks : No
Null samples used in CRC calculations : Yes
Used interface : Native Win32 interface for Win NT & 2000
Used output format : User Defined Encoder
Selected bitrate : 896 kBit/s
Quality : High
Add ID3 tag : No
Command line compressor : C:\Program Files\Exact Audio Copy\FLAC\FLAC.EXE
Additional command line options : -6 -V -T "ARTIST=%artist%" -T "TITLE=%title%" -T "ALBUM=%albumtitle%" -T "DATE=%year%" -T "TRACKNUMBER=%tracknr%" -T "GENRE=%genre%" -T "COMMENT=%comment%" -T "BAND=%albuminterpret%" -T "ALBUMARTIST=%albuminterpret%" -T "COMPOSER=%composer%" %haslyrics%--tag-from-file=LYRICS="%lyricsfile%"%haslyrics% -T "DISCNUMBER=%cdnumber%" -T "TOTALDISCS=%totalcds%" -T "TOTALTRACKS=%numtracks%" %hascover%--picture="%coverfile%"%hascover% %source% -o %dest%
TOC of the extracted CD
Track | Start | Length | Start sector | End sector
---------------------------------------------------------
1 | 0:00.00 | 5:29.11 | 0 | 24685
2 | 5:29.11 | 10:51.36 | 24686 | 73546
3 | 16:20.47 | 2:33.74 | 73547 | 85095
4 | 18:54.46 | 4:06.08 | 85096 | 103553
5 | 23:00.54 | 2:42.51 | 103554 | 115754
6 | 25:43.30 | 1:56.69 | 115755 | 124523
7 | 27:40.24 | 2:34.05 | 124524 | 136078
8 | 30:14.29 | 4:49.16 | 136079 | 157769
9 | 35:03.45 | 3:01.06 | 157770 | 171350
10 | 38:04.51 | 7:39.36 | 171351 | 205811
11 | 45:44.12 | 2:01.54 | 205812 | 214940
12 | 47:45.66 | 1:20.11 | 214941 | 220951
13 | 49:06.02 | 1:42.25 | 220952 | 228626
14 | 50:48.27 | 1:53.30 | 228627 | 237131
15 | 52:41.57 | 3:55.70 | 237132 | 254826
Range status and errors
Selected range
Filename J:\ICE\MM.PDVIV.JS\cd 2\2-2 - Savall, Hantai, Pierlot, Lislevand, Lawrence-King - Marin Marias- Pieces de Viole du IV Livre,1717.wav
Peak level 100.0 %
Extraction speed 7.2 X
Range quality 99.9 %
Test CRC 255A1471
Copy CRC 255A1471
Copy OK
No errors occurred
AccurateRip summary
Track 1 accurately ripped (confidence 8) [4DA7B123] (AR v2)
Track 2 accurately ripped (confidence 8) [140A1FE8] (AR v2)
Track 3 accurately ripped (confidence 8) [224C08B0] (AR v2)
Track 4 accurately ripped (confidence 8) [EC17B81C] (AR v2)
Track 5 accurately ripped (confidence 8) [940B6A32] (AR v2)
Track 6 accurately ripped (confidence 8) [7973AAC1] (AR v2)
Track 7 accurately ripped (confidence 8) [7BB4A8AC] (AR v2)
Track 8 accurately ripped (confidence 7) [3F39632E] (AR v2)
Track 9 accurately ripped (confidence 8) [686F3243] (AR v2)
Track 10 accurately ripped (confidence 8) [0A00E5DC] (AR v2)
Track 11 accurately ripped (confidence 7) [0F02623A] (AR v2)
Track 12 accurately ripped (confidence 8) [0FC9AFF1] (AR v2)
Track 13 accurately ripped (confidence 8) [B9A73E2F] (AR v2)
Track 14 accurately ripped (confidence 8) [D133BBB0] (AR v2)
Track 15 accurately ripped (confidence 8) [71FC9404] (AR v2)
All tracks accurately ripped
End of status report
---- CUETools DB Plugin V2.1.3
[CTDB TOCID: BBI5b1QoZOptshH.VX8bhydNmXo-] found, Submit result: BBI5b1QoZOptshH.VX8bhydNmXo- has been confirmed
[ab741e40] (38/38) Accurately ripped
==== Log checksum 3D2BC52B1B508A10261DF53BFC950936A1FD82C82C9F9CDD32DA6EBDC561C864 ====
Содержание индексной карты (.CUE)
CD1

скрытый текст

REM GENRE Classical
REM DATE 2006
REM DISCID EB0B3E12
REM COMMENT "ExactAudioCopy v1.0b3"
PERFORMER "1-2 : Savall, Hantai, Pierlot, Lislevand, Laurence-King, Estevan"
TITLE "Marin Marias: Pieces de Viole du IV Livre, 1717"
FILE "1-2 - Savall, Hantai, Pierlot, Lislevand, Laurence-King, Estevan - Marin Marias- Pieces de Viole du IV Livre, 1717.flac" WAVE
TRACK 01 AUDIO
TITLE "Marche Tartare, IV. 55"
PERFORMER "1-2 : Savall, Hantai, Pierlot, Lislevand, Laurence-King, Estevan"
INDEX 01 00:00:00
TRACK 02 AUDIO
TITLE "Allemande, IV. 56"
PERFORMER "1-2 : Savall, Hantai, Pierlot, Lislevand, Laurence-King, Estevan"
INDEX 01 02:11:21
TRACK 03 AUDIO
TITLE "Sarabande, IV. 57"
PERFORMER "1-2 : Savall, Hantai, Pierlot, Lislevand, Laurence-King, Estevan"
INDEX 01 04:22:54
TRACK 04 AUDIO
TITLE "La Tartarine, IV. 58"
PERFORMER "1-2 : Savall, Hantai, Pierlot, Lislevand, Laurence-King, Estevan"
INDEX 01 07:13:49
TRACK 05 AUDIO
TITLE "Double, IV. 59"
PERFORMER "1-2 : Savall, Hantai, Pierlot, Lislevand, Laurence-King, Estevan"
INDEX 01 08:10:60
TRACK 06 AUDIO
TITLE "Gavotte, IV. 60"
PERFORMER "1-2 : Savall, Hantai, Pierlot, Lislevand, Laurence-King, Estevan"
INDEX 01 09:23:28
TRACK 07 AUDIO
TITLE "Feste Champetre, IV. 61"
PERFORMER "1-2 : Savall, Hantai, Pierlot, Lislevand, Laurence-King, Estevan"
INDEX 01 11:05:71
TRACK 08 AUDIO
TITLE "Gigue la Fleselle, IV. 62"
PERFORMER "1-2 : Savall, Hantai, Pierlot, Lislevand, Laurence-King, Estevan"
INDEX 01 16:51:35
TRACK 09 AUDIO
TITLE "Rondeau le Bijou, IV. 63"
PERFORMER "1-2 : Savall, Hantai, Pierlot, Lislevand, Laurence-King, Estevan"
INDEX 01 19:17:37
TRACK 10 AUDIO
TITLE "Le Tourbillon, IV. 64"
PERFORMER "1-2 : Savall, Hantai, Pierlot, Lislevand, Laurence-King, Estevan"
INDEX 01 25:16:10
TRACK 11 AUDIO
TITLE "L'Uniforme, IV. 65"
PERFORMER "1-2 : Savall, Hantai, Pierlot, Lislevand, Laurence-King, Estevan"
INDEX 01 26:56:01
TRACK 12 AUDIO
TITLE "Suitte, IV. 66"
PERFORMER "1-2 : Savall, Hantai, Pierlot, Lislevand, Laurence-King, Estevan"
INDEX 01 28:20:73
TRACK 13 AUDIO
TITLE "Suitte, IV. 67"
PERFORMER "1-2 : Savall, Hantai, Pierlot, Lislevand, Laurence-King, Estevan"
INDEX 01 29:17:47
TRACK 14 AUDIO
TITLE "L'Ameriquaine, IV. 68"
PERFORMER "1-2 : Savall, Hantai, Pierlot, Lislevand, Laurence-King, Estevan"
INDEX 01 31:41:55
TRACK 15 AUDIO
TITLE "Allemande pour le Sujet et Gigue pour"
PERFORMER "1-2 : Savall, Hantai, Pierlot, Lislevand, Laurence-King, Estevan"
INDEX 01 36:02:64
TRACK 16 AUDIO
TITLE "Allemande l'Asmatique, IV. 70"
PERFORMER "1-2 : Savall, Hantai, Pierlot, Lislevand, Laurence-King, Estevan"
INDEX 01 38:39:50
TRACK 17 AUDIO
TITLE "La Tourneuse, IV. 71"
PERFORMER "1-2 : Savall, Hantai, Pierlot, Lislevand, Laurence-King, Estevan"
INDEX 01 40:21:20
TRACK 18 AUDIO
TITLE "Muzette, IV. 72"
PERFORMER "1-2 : Savall, Hantai, Pierlot, Lislevand, Laurence-King, Estevan"
INDEX 01 42:57:54
CD2

скрытый текст

REM GENRE Classical
REM DATE 2006
REM DISCID D30D450F
REM COMMENT "ExactAudioCopy v1.0b3"
PERFORMER "2-2 : Savall, Hantai, Pierlot, Lislevand, Lawrence-King"
TITLE "Marin Marias: Pieces de Viole du IV Livre,1717"
FILE "2-2 - Savall, Hantai, Pierlot, Lislevand, Lawrence-King - Marin Marias- Pieces de Viole du IV Livre,1717.flac" WAVE
TRACK 01 AUDIO
TITLE "Caprice ou Sonate, IV. 73"
PERFORMER "2-2 : Savall, Hantai, Pierlot, Lislevand, Lawrence-King"
INDEX 01 00:00:00
TRACK 02 AUDIO
TITLE "Le Labyrinthe, IV. 74"
PERFORMER "2-2 : Savall, Hantai, Pierlot, Lislevand, Lawrence-King"
INDEX 01 05:29:11
TRACK 03 AUDIO
TITLE "La Sauterelle, IV. 75"
PERFORMER "2-2 : Savall, Hantai, Pierlot, Lislevand, Lawrence-King"
INDEX 01 16:20:47
TRACK 04 AUDIO
TITLE "La Fougade, IV. 76"
PERFORMER "2-2 : Savall, Hantai, Pierlot, Lislevand, Lawrence-King"
INDEX 01 18:54:46
TRACK 05 AUDIO
TITLE "Allemande la Bizare, IV. 77"
PERFORMER "2-2 : Savall, Hantai, Pierlot, Lislevand, Lawrence-King"
INDEX 01 23:00:54
TRACK 06 AUDIO
TITLE "La Minaudiere, IV. 78"
PERFORMER "2-2 : Savall, Hantai, Pierlot, Lislevand, Lawrence-King"
INDEX 01 25:43:30
TRACK 07 AUDIO
TITLE "Allemande la Singuliere, IV. 7"
PERFORMER "2-2 : Savall, Hantai, Pierlot, Lislevand, Lawrence-King"
INDEX 01 27:40:24
TRACK 08 AUDIO
TITLE "L'Arabesque, IV. 80"
PERFORMER "2-2 : Savall, Hantai, Pierlot, Lislevand, Lawrence-King"
INDEX 01 30:14:29
TRACK 09 AUDIO
TITLE "Allemande la Superbe, IV. 81"
PERFORMER "2-2 : Savall, Hantai, Pierlot, Lislevand, Lawrence-King"
INDEX 01 35:03:45
TRACK 10 AUDIO
TITLE "La Reveuse, IV. 82"
PERFORMER "2-2 : Savall, Hantai, Pierlot, Lislevand, Lawrence-King"
INDEX 01 38:04:51
TRACK 11 AUDIO
TITLE "Marche, IV. 83"
PERFORMER "2-2 : Savall, Hantai, Pierlot, Lislevand, Lawrence-King"
INDEX 01 45:44:12
TRACK 12 AUDIO
TITLE "Gigue, IV. 84"
PERFORMER "2-2 : Savall, Hantai, Pierlot, Lislevand, Lawrence-King"
INDEX 01 47:45:66
TRACK 13 AUDIO
TITLE "Piece Luthee, IV. 85"
PERFORMER "2-2 : Savall, Hantai, Pierlot, Lislevand, Lawrence-King"
INDEX 01 49:06:02
TRACK 14 AUDIO
TITLE "Gigue la Caustique, IV. 86"
PERFORMER "2-2 : Savall, Hantai, Pierlot, Lislevand, Lawrence-King"
INDEX 01 50:48:27
TRACK 15 AUDIO
TITLE "Le Badinage, IV. 87"
PERFORMER "2-2 : Savall, Hantai, Pierlot, Lislevand, Lawrence-King"
INDEX 01 52:41:57



Показать сообщения:    

Текущее время: 05-Дек 03:31

Часовой пояс: UTC + 3


Вы не можете начинать темы
Вы не можете отвечать на сообщения
Вы не можете редактировать свои сообщения
Вы не можете удалять свои сообщения
Вы не можете голосовать в опросах
Вы не можете прикреплять файлы к сообщениям
Вы не можете скачивать файлы