(Baroque pieces de viole) Marin Marais - Les Folies d'Espagne , Suite en mi , Le Labyrinthe (Ensemble Spirale, Marianne Muller) - 2006, FLAC (image+.cue) lossless


 

[Цитировать]

Marin Marais - Les Folies d'Espagne / Suite en mi / Le Labyrinthe

Жанр: Baroque pieces de viole
Страна-производитель диска: Made in France
Год издания диска: 2006
Издатель (лейбл): Zig-Zag Territoires
Номер по каталогу: ZZT060801
Дата записи: 2005
Аудиокодек: FLAC
Тип рипа: image+.cue
Битрейт аудио: lossless
Продолжительность: 61'12"
Источник: релизер
сайт-источник/ник/другое: собственная коллекция
Наличие сканов в содержимом раздачи: да
Треклист:

скрытый текст

01. Les Folies d'Espagne: 32 Variations 18:12
02. Suite en mi mineur - I. Prelude 3:03
03. - II. Fantaisie 1:01
04. - III. Allemande 2:21
05. - IV. Courante 1:35
06. - V. Sarabande 3:09
07. - VI. Sarabande a l'espagnole 3:30
08. - VII. Gigue 2:29
09. - VIII. Gigue 'La Badine' 0:54
10. - IX. Rondeau 3:40
11. - X. Menuet 0:41
12. - XI. Menuet 0:56
13. - XII. Tombeau pour M. de Sainte-Colombe 7:11
14. Le Labyrinthe (Extrait de la Suite d'un Gout Etranger) 12:28
Исполнители:

скрытый текст

Marin Marais (1656-1728)
Les Folies d'Espagne / Suite en mi / Le Labyrinthe
Marianne Muller (viole de gambe et direction)
Sylvia Abramowicz (viole de gambe)
Violaine Cochard (clavecin)
Charles-Edouard Fantin (guitare baroque)
Claire Antonini (theorbe)
Enregistrement realise du 10 au 14 octobre 2005 a St Michael Church, Paris
Audio CD (25 Sep 2006)

Лог создания рипа

Exact Audio Copy V0.99 prebeta 5 from 4. May 2009
EAC extraction logfile from 3. January 2010, 20:45
Ensemble Spirale / MarinMarais
Used drive : ASUS SDRW-0806T-D Adapter: 3 ID: 0
Read mode : Secure
Utilize accurate stream : Yes
Defeat audio cache : Yes
Make use of C2 pointers : No
Read offset correction : 704
Overread into Lead-In and Lead-Out : No
Fill up missing offset samples with silence : Yes
Delete leading and trailing silent blocks : No
Null samples used in CRC calculations : No
Used interface : Native Win32 interface for Win NT & 2000
Used output format : User Defined Encoder
Selected bitrate : 768 kBit/s
Quality : High
Add ID3 tag : No
Command line compressor : C:\Program Files\Exact Audio Copy\FLAC\FLAC.EXE
Additional command line options : -6 -V -T "ARTIST=%a" -T "TITLE=%t" -T "ALBUM=%g" -T "DATE=%y" -T "TRACKNUMBER=%n" -T "GENRE=%m" -T "COMMENT=%e" %s -o %d
TOC of the extracted CD
Track | Start | Length | Start sector | End sector
---------------------------------------------------------
1 | 0:00.00 | 18:14.27 | 0 | 82076
2 | 18:14.27 | 3:03.27 | 82077 | 95828
3 | 21:17.54 | 1:01.34 | 95829 | 100437
4 | 22:19.13 | 2:21.29 | 100438 | 111041
5 | 24:40.42 | 1:35.31 | 111042 | 118197
6 | 26:15.73 | 3:09.00 | 118198 | 132372
7 | 29:24.73 | 3:30.60 | 132373 | 148182
8 | 32:55.58 | 2:28.73 | 148183 | 159355
9 | 35:24.56 | 0:54.51 | 159356 | 163456
10 | 36:19.32 | 3:40.12 | 163457 | 179968
11 | 39:59.44 | 0:41.00 | 179969 | 183043
12 | 40:40.44 | 0:57.70 | 183044 | 187388
13 | 41:38.39 | 7:11.57 | 187389 | 219770
14 | 48:50.21 | 12:28.28 | 219771 | 275898
Range status and errors
Selected range
Filename D:\RIP\CDImage.wav
Peak level 97.9 %
Range quality 100.0 %
Test CRC 5D4971E8
Copy CRC 5D4971E8
Copy OK
No errors occurred
AccurateRip summary
Track 1 accurately ripped (confidence 2) [E17C4517]
Track 2 accurately ripped (confidence 2) [BDDC7761]
Track 3 accurately ripped (confidence 1) [A9E222D8]
Track 4 accurately ripped (confidence 1) [3297C8FD]
Track 5 accurately ripped (confidence 1) [0BE7F121]
Track 6 accurately ripped (confidence 1) [97303753]
Track 7 accurately ripped (confidence 1) [ECA0D18A]
Track 8 accurately ripped (confidence 1) [80C8F1C6]
Track 9 accurately ripped (confidence 1) [D9501EBA]
Track 10 accurately ripped (confidence 1) [CC4F972E]
Track 11 accurately ripped (confidence 1) [E8E35A2D]
Track 12 accurately ripped (confidence 1) [18EBFA2F]
Track 13 accurately ripped (confidence 1) [E6C70CBB]
Track 14 accurately ripped (confidence 1) [8EE9DBD9]
All tracks accurately ripped
End of status report

Содержание индексной карты (.CUE)

REM GENRE classique
REM DATE 2005
PERFORMER "Ensemble Spirale"
TITLE "MarinMarais"
FILE "Marais Ens Spirale Marianne Muller.flac" WAVE
TRACK 01 AUDIO
TITLE "Les Folies d'Espagne-32 variations"
PERFORMER "Ensemble Spirale"
INDEX 01 00:00:00
TRACK 02 AUDIO
TITLE "Suite en mi mineur - Prelude"
PERFORMER "Ensemble Spirale"
INDEX 00 18:07:15
INDEX 01 18:14:27
TRACK 03 AUDIO
TITLE "Suite en Mi Mineur-Fantaisie"
PERFORMER "Ensemble Spirale"
INDEX 01 21:17:54
TRACK 04 AUDIO
TITLE "Suite en mi mineur - Allemande"
PERFORMER "Ensemble Spirale"
INDEX 01 22:19:13
TRACK 05 AUDIO
TITLE "Courante"
PERFORMER "Suite en mi mineur"
INDEX 01 24:40:42
TRACK 06 AUDIO
TITLE "Suite en mi mineur - Sarabande"
PERFORMER "Ensemble Spirale"
INDEX 01 26:15:73
TRACK 07 AUDIO
TITLE "Suite en Mi Mineur-Sarabande a l'espagnole"
PERFORMER "Ensemble Spirale"
INDEX 01 29:24:73
TRACK 08 AUDIO
TITLE "Suite en mi mineur - Gigue"
PERFORMER "Ensemble Spirale"
INDEX 01 32:55:58
TRACK 09 AUDIO
TITLE "Suite en Mi Mineur-Gigue 'La Badine'"
PERFORMER "Ensemble Spirale"
INDEX 01 35:24:56
TRACK 10 AUDIO
TITLE "Suite en mi mineur - Rondeau"
PERFORMER "Ensemble Spirale"
INDEX 01 36:19:32
TRACK 11 AUDIO
TITLE "Suite en Mi Mineur-Menuet"
PERFORMER "Ensemble Spirale"
INDEX 01 39:59:44
TRACK 12 AUDIO
TITLE "Suite en Mi Mineur-Menuet"
PERFORMER "Ensemble Spirale"
INDEX 01 40:40:44
TRACK 13 AUDIO
TITLE "Suite en Mi Mineur-Tombeau pour M. de Sainte Colombe"
PERFORMER "Ensemble Spirale"
INDEX 01 41:38:39
TRACK 14 AUDIO
TITLE "Le Labyrinthe-Suite d'un gout etranger"
PERFORMER "Ensemble Spirale"



Показать сообщения:    

Текущее время: 07-Дек 23:19

Часовой пояс: UTC + 3


Вы не можете начинать темы
Вы не можете отвечать на сообщения
Вы не можете редактировать свои сообщения
Вы не можете удалять свои сообщения
Вы не можете голосовать в опросах
Вы не можете прикреплять файлы к сообщениям
Вы не можете скачивать файлы