(Baroque pieces de viole) Marin Marais - Grand Ballet (Paolo Pandolfo) [2CD] - 2004, APE (image+.cue) lossless


 

[Цитировать]

Marin Marais - Grand Ballet (Paolo Pandolfo)

Жанр: Baroque pieces de viole
Страна-производитель диска: Made in Austria
Год издания диска: 2004
Издатель (лейбл): Glossa Music, S.L.
Номер по каталогу: GCD 920406
Дата записи: 2001
Аудиокодек: APE
Тип рипа: image+.cue
Битрейт аудио: lossless
Продолжительность: 69'45 + 20'48
Источник: релизер
сайт-источник/ник/другое: bumbobooks
Наличие сканов в содержимом раздачи: да
Треклист:

скрытый текст

CD1
Marin Marais - Suite for viola da gamba & continuo in A minor (Pieces de viole, Book III, Nos. 1-13): Excerpts 2001 22:17
Marin Marais - Suite for viola da gamba & continuo in G major (Pieces de viole, Book III, Nos. 92-111): Excerpts 2001 17:45
Marin Marais - Work(s): Muzette for 2 Viols & Continuo in G major (Book 4) 2001 5:04
Marin Marais - Work(s): Chaconne for Viol & Continuo in G major (Book 5) 2001 5:17
Marin Marais - Suite for viola da gamba & continuo in D minor (Pieces de viole, Book II, Nos. 1-20): Excerpts 2001 19:09
CD2
Paolo Pandolfo - Improvisation for viola da gamba 2001 3:30
Marin Marais - Couplets de folies (Les folies d'Espagne), for viola da gamba & continuo in D minor (Pieces de viole, Book II, No. 20) 2001 17:19

скрытый текст

CD1
Suite en La mineur (IIIe Livre)
01. Prelude 3:49
02. Fantaisie 0:40
03. Allemande 2:50
04. Courante 1:40
05. Sarabande 3:05
06. Gigue + Double 1:23
07. Gavotte 2:15
08. Menuets 1 & 2 2:01
09. Grand Ballet 4:26
Suite en Sol majeur (IIIe Livre)
10. Prelude 2:04
11. Caprice 1:09
12. Allemande + Double 2:26
13. Courante 1:36
14. Sarabande grave 3:36
15. Gigue a l'angloise 0:51
16. Gigue La Petite 0:47
17. Gavotte 2:15
18. Menuets 1 & 2 3:01
19. Muzette (IVe Livre) 5:00
20. Chaconne (Ve Livre) 5:04
Suite en Re mineur (IIe Livre)
21. Prelude 3:15
22. Bourrasque 0:33
23. Allemande 2:15
24. Courante 1:19
25. Sarabande 2:57
26. Gigue 1:25
27. Menuets 1 & 2 3:02
28. Double Rondeau 4:24
CD2
1. Improvisation 3:29
2. Couplets de Folies (IIe Livre) 17:18
Исполнители:

скрытый текст

Marin Marais
Grand Ballet
Performers
PAOLO PANDOLFO, viola da gamba
Guido Balestracci, viola da gamba
Thomas Boysen, theorbo and baroque guitar
Dolores Costoyas, baroque guitar and theorbo
Mitzi Meyerson, harpsichord
Production details
Recorded in Berlin (Siemensvilla), Germany, in October 2001
Engineered and edited by MANUEL MOHINO
Produced by MANUEL MOHINO and PAOLO PANDOLFO
Лог создания рипа
CD1

скрытый текст

EAC extraction logfile from 23. April 2007, 14:05 for CD
Marin Marais / Grand Ballet (1 of 2)
Used drive : PLEXTOR DVDR PX-750A Adapter: 3 ID: 0
Read mode : Secure with NO C2, accurate stream, disable cache
Read offset correction : 112
Overread into Lead-In and Lead-Out : No
Used output format : Internal WAV Routines
44.100 Hz; 16 Bit; Stereo
Use compression offset : 2257
Other options :
Fill up missing offset samples with silence : Yes
Delete leading and trailing silent blocks : No
Installed external ASPI interface
Range status and errors
Selected range
Filename E:\Marin Marais - Grand Ballet (1 of 2).wav
Peak level 94.1 %
Range quality 100.0 %
CRC F8EF32A1
Copy OK
No errors occured
End of status report
CD2

скрытый текст

EAC extraction logfile from 23. April 2007, 14:51 for CD
Marin Marais / Grand Ballet (2 of 2)
Used drive : PLEXTOR DVDR PX-750A Adapter: 3 ID: 0
Read mode : Secure with NO C2, accurate stream, disable cache
Read offset correction : 112
Overread into Lead-In and Lead-Out : No
Used output format : Internal WAV Routines
44.100 Hz; 16 Bit; Stereo
Use compression offset : 2257
Other options :
Fill up missing offset samples with silence : Yes
Delete leading and trailing silent blocks : No
Installed external ASPI interface
Range status and errors
Selected range
Filename E:\Marin Marais - Grand Ballet (2 of 2).wav
Peak level 99.8 %
Range quality 100.0 %
CRC 3350B741
Copy OK
No errors occured
End of status report
Содержание индексной карты (.CUE)
CD1

скрытый текст

REM GENRE Chamber
REM DATE 2002
REM DISCID 95105B1C
REM COMMENT "ExactAudioCopy v0.95b4"
PERFORMER "Marin Marais"
TITLE "Grand Ballet (1 of 2)"
FILE "Marin Marais - Grand Ballet (1 of 2).wav" WAVE
TRACK 01 AUDIO
TITLE "Prelude - Suite in a (III livre)"
PERFORMER "Marin Marais"
INDEX 01 00:00:00
TRACK 02 AUDIO
TITLE "Fantaisie"
PERFORMER "Marin Marais"
INDEX 01 03:46:73
TRACK 03 AUDIO
TITLE "Allemande"
PERFORMER "Marin Marais"
INDEX 01 04:27:12
TRACK 04 AUDIO
TITLE "Courante"
PERFORMER "Marin Marais"
INDEX 01 07:17:46
TRACK 05 AUDIO
TITLE "Sarabande"
PERFORMER "Marin Marais"
INDEX 01 08:57:38
TRACK 06 AUDIO
TITLE "Gigue + Double"
PERFORMER "Marin Marais"
INDEX 01 12:02:17
TRACK 07 AUDIO
TITLE "Gavotte"
PERFORMER "Marin Marais"
INDEX 01 13:25:21
TRACK 08 AUDIO
TITLE "Menuets 1 & 2"
PERFORMER "Marin Marais"
INDEX 01 15:41:04
INDEX 02 16:33:54
INDEX 03 17:09:58
TRACK 09 AUDIO
TITLE "Grand Ballet"
PERFORMER "Marin Marais"
INDEX 01 17:42:07
TRACK 10 AUDIO
TITLE "Prelude - Suite in A (III livre)"
PERFORMER "Marin Marais"
INDEX 00 22:08:39
INDEX 01 22:21:24
TRACK 11 AUDIO
TITLE "Caprice"
PERFORMER "Marin Marais"
INDEX 01 24:25:49
TRACK 12 AUDIO
TITLE "Allemande + Double"
PERFORMER "Marin Marais"
INDEX 00 25:35:23
INDEX 01 25:36:04
TRACK 13 AUDIO
TITLE "Courante"
PERFORMER "Marin Marais"
INDEX 01 28:02:13
TRACK 14 AUDIO
TITLE "Sarabande grave"
PERFORMER "Marin Marais"
INDEX 01 29:38:09
TRACK 15 AUDIO
TITLE "Gigue 'a l'angloise"
PERFORMER "Marin Marais"
INDEX 01 33:14:57
TRACK 16 AUDIO
TITLE "Gigue La Petite"
PERFORMER "Marin Marais"
INDEX 00 34:06:30
INDEX 01 34:06:33
TRACK 17 AUDIO
TITLE "Gavotte"
PERFORMER "Marin Marais"
INDEX 01 34:53:21
TRACK 18 AUDIO
TITLE "Menuets 1 & 2"
PERFORMER "Marin Marais"
INDEX 00 37:08:11
INDEX 01 37:09:16
INDEX 02 37:55:51
INDEX 03 39:32:42
TRACK 19 AUDIO
TITLE "Muzette (2 viols version from IV Livre)"
PERFORMER "Marin Marais"
INDEX 00 40:11:09
INDEX 01 40:11:65
INDEX 02 41:22:21
INDEX 03 42:09:45
INDEX 04 43:18:21
TRACK 20 AUDIO
TITLE "Chaconne (V Livre)"
PERFORMER "Marin Marais"
INDEX 00 45:12:30
INDEX 01 45:16:39
TRACK 21 AUDIO
TITLE "Prelude - Suite in d (II Livre)"
PERFORMER "Marin Marais"
INDEX 00 50:21:23
INDEX 01 50:34:12
TRACK 22 AUDIO
TITLE "Bourrasque"
PERFORMER "Marin Marais"
INDEX 01 53:49:39
TRACK 23 AUDIO
TITLE "Allemande"
PERFORMER "Marin Marais"
INDEX 00 54:22:60
INDEX 01 54:22:61
TRACK 24 AUDIO
TITLE "Courante"
PERFORMER "Marin Marais"
INDEX 01 56:38:30
TRACK 25 AUDIO
TITLE "Sarabande"
PERFORMER "Marin Marais"
INDEX 01 57:58:04
TRACK 26 AUDIO
TITLE "Gigue"
PERFORMER "Marin Marais"
INDEX 01 60:55:01
TRACK 27 AUDIO
TITLE "Menuets 1 & 2"
PERFORMER "Marin Marais"
INDEX 01 62:20:36
TRACK 28 AUDIO
TITLE "Double Rondeau"
PERFORMER "Marin Marais"
INDEX 01 65:22:63
CD2

скрытый текст

REM GENRE Chamber
REM DATE 2002
REM DISCID 0704E102
REM COMMENT "ExactAudioCopy v0.95b4"
PERFORMER "Marin Marais"
TITLE "Grand Ballet (2 of 2)"
FILE "Marin Marais - Grand Ballet (2 of 2).wav" WAVE
TRACK 01 AUDIO
TITLE "Improvisation"
PERFORMER "Marin Marais"
INDEX 01 00:00:00
TRACK 02 AUDIO
TITLE "Couplets de Folies (II Livre)"
PERFORMER "Marin Marais"
INDEX 01 03:30:28
INDEX 02 04:04:73
INDEX 03 04:42:64
INDEX 04 05:11:49
INDEX 05 05:38:40
INDEX 06 06:15:40
INDEX 07 06:30:01
INDEX 08 07:09:16
INDEX 09 07:32:67
INDEX 10 07:53:53
INDEX 11 08:23:22
INDEX 12 09:25:25
INDEX 13 09:47:55
INDEX 14 10:18:27
INDEX 15 11:00:21
INDEX 16 11:26:49
INDEX 17 11:49:25
INDEX 18 12:14:43
INDEX 19 12:34:67
INDEX 20 13:08:22
INDEX 21 13:33:58
INDEX 22 14:29:19
INDEX 23 14:50:31
INDEX 24 15:17:58
INDEX 25 16:11:07
INDEX 26 16:38:13
INDEX 27 17:22:16
INDEX 28 17:45:55
INDEX 29 18:10:46
INDEX 30 19:18:16
INDEX 31 19:50:40
INDEX 32 20:14:10



Показать сообщения:    

Текущее время: 09-Дек 18:30

Часовой пояс: UTC + 3


Вы не можете начинать темы
Вы не можете отвечать на сообщения
Вы не можете редактировать свои сообщения
Вы не можете удалять свои сообщения
Вы не можете голосовать в опросах
Вы не можете прикреплять файлы к сообщениям
Вы не можете скачивать файлы