По следу тигра (Андрей Куренков) [2014, Кинематограф, DVB-Т2]


Статистика раздачи [Обновить пиров]
Размер:  936 MB   |    Зарегистрирован:  8 месяцев 23 дня   |    Скачан:  0 раз

Полного источника не было: Никогда

Личеров:  3  [  0 KB/s  ]   Подробная статистика пиров
 
   
 
 
 

[Цитировать]

По следу тигра
Дата/Год выпуска: 2014
Страна: Россия
Жанр: Кинематограф
Продолжительность: 00:43:33
Перевод: Не требуется
Русские субтитры: нет
Режиссер: Андрей Куренков
Телеканал: НТВ
Описание: Съемки остросюжетного фильма "След тигра" проходили во Владивостоке, в Петербурге и Ленинградской области. При этом во Владивостоке киношники снимали в основном панорамные планы и самого тигра. А тайгу, очень похожую на Дальний Восток - в Ленинградской области, близ города Лодейное поле. Актерский состав еле выдерживал съемки в режиме "с самолета на площадку" во Владивостоке, учитывая 7-часовую разницу во времени. Однако экшн-сцены удались на славу. И все актеры в кадре держались бодро!А еще киношники шутят, что тигр прочитал сценарий, потому что играть так, как это сделал он, не зная сюжет, невозможно. Поэтому актер и партнер по площадке Александра Балуева съемочной группе достался очень профессиональный. В фильм вошли эксклюзивные интервью с актерами, режиссером и автором сценария, а также с сотрудником фонда "Амур-тигр" - он рассказал, какая работа велась над сценарием для того, чтобы наиболее точно передать характер поведения тигра, пусть даже в художественном фильме. Кроме того, зрители смогут увидеть каскадерские трюки голливудского масштаба: падение с отвесных скал в карьер, прыжки через машину, а главное - закадровые хитрости съемки тигра - зверя, который не поддается дрессировке.
Раздача группы:
Сэмпл
След тигра
качество: DVB-Т2
формат: TS
Видео: AVC, 720х576@1024х576 (16:9), 2671 Kbps, 25 fps, Bits/(Pixel*Frame): 0.254
Аудио: MP2, 192 Kbps, 48.0 KHz, 2 ch

MediaInfo

D:\видео\По следу тигра.ts
General #1
ID : 1 (0x1)
Complete name : D:\видео\По следу тигра.ts
Format : MPEG-TS
File size : 936 MiB
Duration : 43mn 33s
Overall bit rate : 3 005 Kbps
Video #1041
ID : 1041 (0x411)
Menu ID : 1 (0x1)
Format : AVC
Format/Info : Advanced Video Codec
Format profile : Main@L3.0
Format settings, CABAC : Yes
Format settings, ReFrames : 3 frames
Codec ID : 27
Duration : 43mn 33s
Bit rate : 2 662 Kbps
Width : 720 pixels
Height : 576 pixels
Display aspect ratio : 16:9
Frame rate : 25.000 fps
Standard : Component
Color space : YUV
Chroma subsampling : 4:2:0
Bit depth : 8 bits
Scan type : Interlaced
Scan order : Top Field First
Bits/(Pixel*Frame) : 0.257
Stream size : 830 MiB (89%)
Color primaries : BT.470-6 System B, BT.470-6 System G, BT.601-6 625, BT.1358 625, BT.1700 625 PAL, BT.1700 625 SECAM
Transfer characteristics : BT.470-6 System B, BT.470-6 System G
Matrix coefficients : BT.470-6 System B, BT.470-6 System G, BT.601-6 625, BT.1358 625, BT.1700 625 PAL, BT.1700 625 SECAM, IEC 61966-2-4 601
Audio #1042
ID : 1042 (0x412)
Menu ID : 1 (0x1)
Format : MPEG Audio
Format version : Version 1
Format profile : Layer 2
Codec ID : 3
Duration : 43mn 33s
Bit rate mode : Constant
Bit rate : 192 Kbps
Channel(s) : 2 channels
Sampling rate : 48.0 KHz
Compression mode : Lossy
Stream size : 59.8 MiB (6%)
Language : English
Text #1044-100
ID : 1044 (0x414)-100
Menu ID : 1 (0x1)
Format : Teletext
Language : Russian

Скриншоты

[teatrix.ru].t19846.torrent 
Торрент: Зарегистрирован [ 2016-03-19 00:20 ] · C14B21CC921E88EA0066BAD06F85B66C8080F6AF

Скачать .torrent

Скачать

19 KB

Статус: проверено
Скачан: 0 раз
Размер: 936 MB
terms.php



Показать сообщения:    

Текущее время: 11-Дек 11:06

Часовой пояс: UTC + 3


Вы не можете начинать темы
Вы не можете отвечать на сообщения
Вы не можете редактировать свои сообщения
Вы не можете удалять свои сообщения
Вы не можете голосовать в опросах
Вы не можете прикреплять файлы к сообщениям
Вы можете скачивать файлы