(Baroque pieces de viole) Marin Marais - Pieces de Viole du Cinquieme Livre (Wieland Kuijken) - 2007, FLAC (image+.cue) lossless


 

[Цитировать]

Marin Marais - Pieces de Viole du Cinquieme Livre

Жанр: Baroque pieces de viole
Страна-производитель диска: Made in Germany
Год издания диска: 1987
Издатель (лейбл): Accent Plus
Номер по каталогу: ACC 10044
Дата записи: 2007
Аудиокодек: FLAC
Тип рипа: image+.cue
Битрейт аудио: lossless
Источник: релизер
сайт-источник/ник/другое: собственная коллекция
Наличие сканов в содержимом раздачи: да
Треклист:

скрытый текст

1. Suite for viola da gamba & continuo in G minor (Pièces de viole, Book V, Nos. 63-73): Movement 1: Prélude
2. Movement 2: Fantaisie
3. Movement 3: Allemande 'La Marianne'
4. Movement 4: Sarabande
5. Movement 5: Gigue 'La Pagode'
6. Movement 6: Le Tombeau pour Marais le Cadet
7. Work(s): Chaconne in G major
8. Dialogue, for viola da gamba & continuo in G major (Pièces de viole, Book V, No. 91)
9. Le Jeu du volant, for viola da gamba & continuo in G major (Pièces de viole, Book V, No. 87)
10. Tableau de l'operation de la taille, for viola da gamba & continuo in E minor (Pièces de viole, Book V, No. 108)
11. Suite for viola da gamba & continuo in A minor (Pièces de viole, Book V, Nos. 1-16): Prélude 'Le Soligni'
12. Petit Caprice
13. Allemande 'La Facile'
14. Sarabande
15. Grane Gavotte
16. Menuet
17. 'La Mariée'
18. Gigue 'La Mutine'
19. La Bagatelle, for viola da gamba & continuo in A minor (Pièces de viole, Book V, No. 12A)
20. Work(s): Rondeau
21. La Poitevine, for viola da gamba & continuo in G major (Pièces de viole, Book V, No. 112)
Исполнители:

скрытый текст

Marin Marais
Pieces de Viole du cinquieme livre
Wieland Kuijken
Kaori Uemura
Robert Kohnen

Лог создания рипа

Exact Audio Copy V0.99 prebeta 5 from 4. May 2009
EAC extraction logfile from 3. December 2010, 15:24
W.Kuijken, K.Uemura, R.Kohnen / M.Marais - Pieces de Viole du cinquieme livre
Used drive : _NEC DVD_RW ND-4551A Adapter: 2 ID: 0
Read mode : Secure
Utilize accurate stream : Yes
Defeat audio cache : Yes
Make use of C2 pointers : No
Read offset correction : 48
Overread into Lead-In and Lead-Out : No
Fill up missing offset samples with silence : Yes
Delete leading and trailing silent blocks : No
Null samples used in CRC calculations : Yes
Used interface : Installed external ASPI interface
Used output format : Internal WAV Routines
Sample format : 44.100 Hz; 16 Bit; Stereo
TOC of the extracted CD
Track | Start | Length | Start sector | End sector
---------------------------------------------------------
1 | 0:00.00 | 2:20.67 | 0 | 10566
2 | 2:20.67 | 0:46.70 | 10567 | 14086
3 | 3:07.62 | 3:12.58 | 14087 | 28544
4 | 6:20.45 | 3:34.25 | 28545 | 44619
5 | 9:54.70 | 2:21.00 | 44620 | 55194
6 | 12:15.70 | 6:40.50 | 55195 | 85244
7 | 18:56.45 | 3:26.52 | 85245 | 100746
8 | 22:23.22 | 4:37.08 | 100747 | 121529
9 | 27:00.30 | 1:45.45 | 121530 | 129449
10 | 28:46.00 | 8:06.35 | 129450 | 165934
11 | 36:52.35 | 2:07.27 | 165935 | 175486
12 | 38:59.62 | 0:49.13 | 175487 | 179174
13 | 39:49.00 | 1:58.50 | 179175 | 188074
14 | 41:47.50 | 3:58.10 | 188075 | 205934
15 | 45:45.60 | 1:38.55 | 205935 | 213339
16 | 47:24.40 | 1:49.45 | 213340 | 221559
17 | 49:14.10 | 1:33.50 | 221560 | 228584
18 | 50:47.60 | 1:51.67 | 228585 | 236976
19 | 52:39.52 | 0:48.23 | 236977 | 240599
20 | 53:28.00 | 3:00.45 | 240600 | 254144
21 | 56:28.45 | 8:56.30 | 254145 | 294374
Range status and errors
Selected range
Filename C:\Marais\W.Kuijken, K.Uemura, R.Kohnen - M.Marais - Pieces de Viole du cinquieme livre.wav
Peak level 87.0 %
Range quality 99.9 %
Test CRC 0E6D4BB4
Copy CRC 0E6D4BB4
Copy OK
No errors occurred
AccurateRip summary
Track 1 not present in database
Track 2 cannot be verified as accurate (confidence 2) [3AD5E159], AccurateRip returned [F4B6A5C2]
Track 3 cannot be verified as accurate (confidence 2) [99572F55], AccurateRip returned [474E1CB0]
Track 4 cannot be verified as accurate (confidence 2) [0F97E2D9], AccurateRip returned [46D48721]
Track 5 cannot be verified as accurate (confidence 2) [7F56063D], AccurateRip returned [E667C1C8]
Track 6 cannot be verified as accurate (confidence 2) [F37CAA50], AccurateRip returned [E89138E1]
Track 7 cannot be verified as accurate (confidence 2) [2F5991F7], AccurateRip returned [EBF245FE]
Track 8 cannot be verified as accurate (confidence 2) [06F79D9C], AccurateRip returned [5ED0E687]
Track 9 cannot be verified as accurate (confidence 2) [6BD20217], AccurateRip returned [839D07DF]
Track 10 cannot be verified as accurate (confidence 2) [D360717B], AccurateRip returned [5C48EC07]
Track 11 cannot be verified as accurate (confidence 2) [A01A7581], AccurateRip returned [36A2DC03]
Track 12 cannot be verified as accurate (confidence 2) [C10A3351], AccurateRip returned [32E222F7]
Track 13 cannot be verified as accurate (confidence 2) [B4E19E98], AccurateRip returned [A662046C]
Track 14 cannot be verified as accurate (confidence 2) [2CB31ECA], AccurateRip returned [C14058B9]
Track 15 cannot be verified as accurate (confidence 2) [AD68B29B], AccurateRip returned [EC58CE4E]
Track 16 cannot be verified as accurate (confidence 2) [0D06E15B], AccurateRip returned [16D77FCE]
Track 17 cannot be verified as accurate (confidence 2) [A92D8B9F], AccurateRip returned [624B5A66]
Track 18 cannot be verified as accurate (confidence 2) [EF7A4FBB], AccurateRip returned [5AA8A4B3]
Track 19 cannot be verified as accurate (confidence 2) [568B8F03], AccurateRip returned [D7940B83]
Track 20 cannot be verified as accurate (confidence 2) [D907E519], AccurateRip returned [F59DB34D]
Track 21 cannot be verified as accurate (confidence 2) [39EB9AD2], AccurateRip returned [FDBA57D0]
20 track(s) could not be verified as accurate
1 track(s) not present in the AccurateRip database
No tracks could be verified as accurate
You may have a different pressing from the one(s) in the database
End of status report

Содержание индексной карты (.CUE)

REM GENRE Instrumental
REM DATE 1987
REM DISCID 250F5515
REM COMMENT "ExactAudioCopy v0.99pb5"
PERFORMER "W.Kuijken, K.Uemura, R.Kohnen"
TITLE "M.Marais - Pieces de Viole du cinquieme livre"
FILE "W.Kuijken, K.Uemura, R.Kohnen - M.Marais - Pieces de Viole du cinquieme livre.flac" WAVE
TRACK 01 AUDIO
TITLE "Suite in G-minor - Prelude"
PERFORMER "W.Kuijken, K.Uemura, R.Kohnen"
INDEX 01 00:00:00
TRACK 02 AUDIO
TITLE "Suite in G-minor - Fantaisie"
PERFORMER "W.Kuijken, K.Uemura, R.Kohnen"
INDEX 01 02:20:67
TRACK 03 AUDIO
TITLE "Suite in G-minor - Allemande <>"
PERFORMER "W.Kuijken, K.Uemura, R.Kohnen"
INDEX 01 03:07:62
TRACK 04 AUDIO
TITLE "Suite in G-minor - Sarabande"
PERFORMER "W.Kuijken, K.Uemura, R.Kohnen"
INDEX 01 06:20:45
TRACK 05 AUDIO
TITLE "Suite in G-minor - Gigue <>"
PERFORMER "W.Kuijken, K.Uemura, R.Kohnen"
INDEX 01 09:54:70
TRACK 06 AUDIO
TITLE "Suite in G-minor - Tombeau pour Marais le Cadet"
PERFORMER "W.Kuijken, K.Uemura, R.Kohnen"
INDEX 01 12:15:70
TRACK 07 AUDIO
TITLE "Suite in G-minor - Chaconne in G-major"
PERFORMER "W.Kuijken, K.Uemura, R.Kohnen"
INDEX 01 18:56:45
TRACK 08 AUDIO
TITLE "Suite in G-minor - Dialogue"
PERFORMER "W.Kuijken, K.Uemura, R.Kohnen"
INDEX 01 22:23:22
TRACK 09 AUDIO
TITLE "Suite in G-minor - Le Jeu du Volant"
PERFORMER "W.Kuijken, K.Uemura, R.Kohnen"
INDEX 01 27:00:30
TRACK 10 AUDIO
TITLE "Suite in G-minor - Le Tableau de l'Operation de la Taille"
PERFORMER "W.Kuijken, K.Uemura, R.Kohnen"
INDEX 01 28:46:00
TRACK 11 AUDIO
TITLE "Suite in A-minor - Prelude <>"
PERFORMER "W.Kuijken, K.Uemura, R.Kohnen"
INDEX 00 36:49:20
INDEX 01 36:52:35
TRACK 12 AUDIO
TITLE "Suite in A-minor - Petit Caprice"
PERFORMER "W.Kuijken, K.Uemura, R.Kohnen"
INDEX 01 38:59:62
TRACK 13 AUDIO
TITLE "Suite in A-minor - Allemande <>"
PERFORMER "W.Kuijken, K.Uemura, R.Kohnen"
INDEX 01 39:49:00
TRACK 14 AUDIO
TITLE "Suite in A-minor - Sarabande"
PERFORMER "W.Kuijken, K.Uemura, R.Kohnen"
INDEX 01 41:47:50
TRACK 15 AUDIO
TITLE "Suite in A-minor - Grande Gavotte"
PERFORMER "W.Kuijken, K.Uemura, R.Kohnen"
INDEX 01 45:45:60
TRACK 16 AUDIO
TITLE "Suite in A-minor - Menuet"
PERFORMER "W.Kuijken, K.Uemura, R.Kohnen"
INDEX 01 47:24:40
TRACK 17 AUDIO
TITLE "Suite in A-minor - <>"
PERFORMER "W.Kuijken, K.Uemura, R.Kohnen"
INDEX 01 49:14:10
TRACK 18 AUDIO
TITLE "Suite in A-minor - Gigue <>"
PERFORMER "W.Kuijken, K.Uemura, R.Kohnen"
INDEX 01 50:47:60
TRACK 19 AUDIO
TITLE "Suite in A-minor - Bagatelle"
PERFORMER "W.Kuijken, K.Uemura, R.Kohnen"
INDEX 01 52:39:52
TRACK 20 AUDIO
TITLE "Suite in A-minor - Rondeau"
PERFORMER "W.Kuijken, K.Uemura, R.Kohnen"
INDEX 01 53:28:00
TRACK 21 AUDIO
TITLE "Suite in A-minor - La Poitevine"
PERFORMER "W.Kuijken, K.Uemura, R.Kohnen"
INDEX 01 56:28:45



Показать сообщения:    

Текущее время: 08-Дек 14:54

Часовой пояс: UTC + 3


Вы не можете начинать темы
Вы не можете отвечать на сообщения
Вы не можете редактировать свои сообщения
Вы не можете удалять свои сообщения
Вы не можете голосовать в опросах
Вы не можете прикреплять файлы к сообщениям
Вы не можете скачивать файлы