(Baroque pieces de viole) Marin Marais - Suites Inedites / Pieces de Violes Inedites, Vol II [Unpublished manuscripts] (Jonathan Dunford, Ensemble A Deux Violes Esgales) - 2002, FLAC (image+.cue) lossless


 

[Цитировать]

Marin Marais - Suites Inedites / Pieces de Violes Inedites, Vol II

Жанр: Baroque pieces de viole
Страна-производитель диска: Made in France
Год издания диска: 2002
Издатель (лейбл): Musidisc France, un Label Universal Music. P.D. / ACCORD
Номер по каталогу: 472 254-2
Дата записи: 2001
Аудиокодек: FLAC
Тип рипа: image+.cue
Битрейт аудио: lossless
Продолжительность: 60'33
Источник: релизер
сайт-источник/ник/другое: Ice
Наличие сканов в содержимом раздачи: да
Треклист:

скрытый текст

01. Suite en Sol majeur pour viole & bc : I. Prelude [0:03:32.65]
02. II. Courante [0:02:29.37]
03. III. Grande Chaconne [0:07:03.38]
04. Suite en Mi mineur pour viole & bc : I. Allemande [0:03:16.62]
05. II. Courante [0:01:52.13]
06. III. Sarabande [0:03:32.72]
07. Suite en Re pour viole & bc : I. Prelude [0:01:10.40]
08. II. Menuet [0:01:19.63]
09. III. Bagatelle [0:01:48.35]
10. IV. Sarabande [0:02:31.20]
11. V. Courante [0:01:40.47]
12. Suite en La majeur pour viole & bc : I. Grand Prelude [0:05:21.20]
13. II. Gigue [0:01:55.63]
14. III. Chaconne [0:03:02.37]
15. Suite en Re mineur pour viole & bc : I. Courante [0:01:53.15]
16. II. Sarabande [0:02:20.58]
17. III. Gavotte [0:00:55.50]
18. Suite en Do pour viole & bc : I. Allemande [0:03:09.65]
19. II. Allemande [0:02:57.52]
20. III. Courante [0:01:54.53]
21. IV. Sarabande [0:02:41.65]
22. V. Gigue [0:02:13.52]
23. VI. Menuet [0:01:46.15]
Исполнители:

скрытый текст

Marin Marais (1656-1728)
Suites Inedites / Pieces de Violes Inedites Vol.II
Unpublished Manuscripts of Marin Marais
Jonathan Dunford : Basse de Viole
Sylvia Abramowich : Basse de Viole
Benjamin Perrot : Theorbe et quitare Baroque
Laurent Stewart : Clavecin
Recording : Paris, Eglise de l'Ascension, from 8 August 11 November 2001

Лог создания рипа

Exact Audio Copy V1.0 beta 3 from 29. August 2011
EAC extraction logfile from 7. February 2012, 19:12
J. Dunford, Ensemble A Deux Violes Esgales / Marais : Suites Inedites - Pieces de Violes Inedites, Vol II
Used drive : TSSTcorpCDDVDW SE-S224Q Adapter: 1 ID: 0
Read mode : Secure
Utilize accurate stream : Yes
Defeat audio cache : Yes
Make use of C2 pointers : No
Read offset correction : 6
Overread into Lead-In and Lead-Out : No
Fill up missing offset samples with silence : Yes
Delete leading and trailing silent blocks : No
Null samples used in CRC calculations : Yes
Used interface : Native Win32 interface for Win NT & 2000
Used output format : User Defined Encoder
Selected bitrate : 896 kBit/s
Quality : High
Add ID3 tag : No
Command line compressor : C:\Program Files\Exact Audio Copy\FLAC\FLAC.EXE
Additional command line options : -6 -V -T "ARTIST=%artist%" -T "TITLE=%title%" -T "ALBUM=%albumtitle%" -T "DATE=%year%" -T "TRACKNUMBER=%tracknr%" -T "GENRE=%genre%" -T "COMMENT=%comment%" -T "BAND=%albuminterpret%" -T "ALBUMARTIST=%albuminterpret%" -T "COMPOSER=%composer%" %haslyrics%--tag-from-file=LYRICS="%lyricsfile%"%haslyrics% -T "DISCNUMBER=%cdnumber%" -T "TOTALDISCS=%totalcds%" -T "TOTALTRACKS=%numtracks%" %hascover%--picture="%coverfile%"%hascover% %source% -o %dest%
TOC of the extracted CD
Track | Start | Length | Start sector | End sector
---------------------------------------------------------
1 | 0:00.00 | 3:32.65 | 0 | 15964
2 | 3:32.65 | 2:29.37 | 15965 | 27176
3 | 6:02.27 | 7:03.38 | 27177 | 58939
4 | 13:05.65 | 3:16.62 | 58940 | 73701
5 | 16:22.52 | 1:52.13 | 73702 | 82114
6 | 18:14.65 | 3:32.72 | 82115 | 98086
7 | 21:47.62 | 1:10.40 | 98087 | 103376
8 | 22:58.27 | 1:19.63 | 103377 | 109364
9 | 24:18.15 | 1:48.35 | 109365 | 117499
10 | 26:06.50 | 2:31.20 | 117500 | 128844
11 | 28:37.70 | 1:40.47 | 128845 | 136391
12 | 30:18.42 | 5:21.20 | 136392 | 160486
13 | 35:39.62 | 1:55.63 | 160487 | 169174
14 | 37:35.50 | 3:02.37 | 169175 | 182861
15 | 40:38.12 | 1:53.15 | 182862 | 191351
16 | 42:31.27 | 2:20.58 | 191352 | 201909
17 | 44:52.10 | 0:55.50 | 201910 | 206084
18 | 45:47.60 | 3:09.65 | 206085 | 220324
19 | 48:57.50 | 2:57.52 | 220325 | 233651
20 | 51:55.27 | 1:54.53 | 233652 | 242254
21 | 53:50.05 | 2:41.65 | 242255 | 254394
22 | 56:31.70 | 2:13.52 | 254395 | 264421
23 | 58:45.47 | 1:46.15 | 264422 | 272386
Range status and errors
Selected range
Filename J:\ICE\M. SIVII.JD\J. Dunford, Ensemble A Deux Violes Esgales - Marais - Suites Inedites - Pieces de Violes Inedites, Vol II.wav
Peak level 100.0 %
Extraction speed 7.1 X
Range quality 100.0 %
Test CRC 237334B5
Copy CRC 237334B5
Copy OK
No errors occurred
AccurateRip summary
Track 1 cannot be verified as accurate (confidence 1) [486C3D93], AccurateRip returned [29C34358] (AR v2)
Track 2 not present in database
Track 3 not present in database
Track 4 not present in database
Track 5 not present in database
Track 6 not present in database
Track 7 not present in database
Track 8 not present in database
Track 9 not present in database
Track 10 not present in database
Track 11 not present in database
Track 12 not present in database
Track 13 not present in database
Track 14 not present in database
Track 15 not present in database
Track 16 not present in database
Track 17 not present in database
Track 18 not present in database
Track 19 not present in database
Track 20 not present in database
Track 21 not present in database
Track 22 not present in database
Track 23 not present in database
1 track(s) could not be verified as accurate
22 track(s) not present in the AccurateRip database
No tracks could be verified as accurate
You may have a different pressing from the one(s) in the database
End of status report
---- CUETools DB Plugin V2.1.3
[CTDB TOCID: pf3bCYFhRd.hNammPPIYYbw58TA-] disk not present in database, Submit result: pf3bCYFhRd.hNammPPIYYbw58TA- has been uploaded
==== Log checksum 66F37C8C77DD846700BAA14C2B3FD5F1A155A26043E7B40E920C09A86344D1B1 ====

Содержание индексной карты (.CUE)

REM GENRE Classical
REM DATE 2001
REM DISCID 530E2F17
REM COMMENT "ExactAudioCopy v1.0b3"
PERFORMER "J. Dunford, Ensemble A Deux Violes Esgales"
TITLE "Marais : Suites Inedites - Pieces de Violes Inedites, Vol II"
FILE "J. Dunford, Ensemble A Deux Violes Esgales - Marais - Suites Inedites - Pieces de Violes Inedites, Vol II.flac" WAVE
TRACK 01 AUDIO
TITLE "Suite en Sol majeur pour viole & bc : I. Prelude"
PERFORMER "J.Dunford, Ensemble A Deux Violes Esgales"
ISRC FRY@70102050
INDEX 01 00:00:00
TRACK 02 AUDIO
TITLE "II. Courante"
PERFORMER "J.Dunford, Ensemble A Deux Violes Esgales"
ISRC FRY@70102060
INDEX 01 03:32:65
TRACK 03 AUDIO
TITLE "III. Grande Chaconne"
PERFORMER "J.Dunford, Ensemble A Deux Violes Esgales"
ISRC FRY@70102070
INDEX 01 06:02:27
TRACK 04 AUDIO
TITLE "Suite en Mi mineur pour viole & bc : I. Allemande"
PERFORMER "J.Dunford, Ensemble A Deux Violes Esgales"
ISRC FRY@70102090
INDEX 01 13:05:65
TRACK 05 AUDIO
TITLE "II. Courante"
PERFORMER "J.Dunford, Ensemble A Deux Violes Esgales"
ISRC FRY@70102100
INDEX 01 16:22:52
TRACK 06 AUDIO
TITLE "III. Sarabande"
PERFORMER "J.Dunford, Ensemble A Deux Violes Esgales"
ISRC FRY@70102100
INDEX 01 18:14:65
TRACK 07 AUDIO
TITLE "Suite en Re pour viole & bc : I. Prelude"
PERFORMER "J.Dunford, Ensemble A Deux Violes Esgales"
ISRC FRY@70102130
INDEX 01 21:47:62
TRACK 08 AUDIO
TITLE "II. Menuet"
PERFORMER "J.Dunford, Ensemble A Deux Violes Esgales"
ISRC FRY@70102140
INDEX 01 22:58:27
TRACK 09 AUDIO
TITLE "III. Bagatelle"
PERFORMER "J.Dunford, Ensemble A Deux Violes Esgales"
ISRC FRY@70102150
INDEX 01 24:18:15
TRACK 10 AUDIO
TITLE "IV. Sarabande"
PERFORMER "J.Dunford, Ensemble A Deux Violes Esgales"
ISRC FRY@70102160
INDEX 01 26:06:50
TRACK 11 AUDIO
TITLE "V. Courante"
PERFORMER "J.Dunford, Ensemble A Deux Violes Esgales"
ISRC FRY@70102170
INDEX 01 28:37:70
TRACK 12 AUDIO
TITLE "Suite en La majeur pour viole & bc : I. Grand Prelude"
PERFORMER "J.Dunford, Ensemble A Deux Violes Esgales"
ISRC FRY@70102190
INDEX 01 30:18:42
TRACK 13 AUDIO
TITLE "II. Gigue"
PERFORMER "J.Dunford, Ensemble A Deux Violes Esgales"
ISRC FRY@70102200
INDEX 01 35:39:62
TRACK 14 AUDIO
TITLE "III. Chaconne"
PERFORMER "J.Dunford, Ensemble A Deux Violes Esgales"
ISRC FRY@70102210
INDEX 01 37:35:50
TRACK 15 AUDIO
TITLE "Suite en Re mineur pour viole & bc : I. Courante"
PERFORMER "J.Dunford, Ensemble A Deux Violes Esgales"
ISRC FRY@70102230
INDEX 01 40:38:12
TRACK 16 AUDIO
TITLE "II. Sarabande"
PERFORMER "J.Dunford, Ensemble A Deux Violes Esgales"
ISRC FRY@70102240
INDEX 01 42:31:27
TRACK 17 AUDIO
TITLE "III. Gavotte"
PERFORMER "J.Dunford, Ensemble A Deux Violes Esgales"
ISRC FRY@70102250
INDEX 01 44:52:10
TRACK 18 AUDIO
TITLE "Suite en Do pour viole & bc : I. Allemande"
PERFORMER "J.Dunford, Ensemble A Deux Violes Esgales"
ISRC FRY@70102270
INDEX 01 45:47:60
TRACK 19 AUDIO
TITLE "II. Allemande"
PERFORMER "J.Dunford, Ensemble A Deux Violes Esgales"
ISRC FRY@70102280
INDEX 01 48:57:50
TRACK 20 AUDIO
TITLE "III. Courante"
PERFORMER "J.Dunford, Ensemble A Deux Violes Esgales"
ISRC FRY@70102290
INDEX 01 51:55:27
TRACK 21 AUDIO
TITLE "IV. Sarabande"
PERFORMER "J.Dunford, Ensemble A Deux Violes Esgales"
ISRC FRY@70102300
INDEX 01 53:50:05
TRACK 22 AUDIO
TITLE "V. Gigue"
PERFORMER "J.Dunford, Ensemble A Deux Violes Esgales"
ISRC FRY@70102310
INDEX 01 56:31:70
TRACK 23 AUDIO
TITLE "VI. Menuet"
PERFORMER "J.Dunford, Ensemble A Deux Violes Esgales"
ISRC FRY@70102320
INDEX 01 58:45:47



Показать сообщения:    

Текущее время: 04-Дек 02:53

Часовой пояс: UTC + 3


Вы не можете начинать темы
Вы не можете отвечать на сообщения
Вы не можете редактировать свои сообщения
Вы не можете удалять свои сообщения
Вы не можете голосовать в опросах
Вы не можете прикреплять файлы к сообщениям
Вы не можете скачивать файлы