(Classical) Max Reger - Orchestral Works - Norrkoping Symphony Orchestra, Leif Segerstam - 3CD - 2013, FLAC (image+.cue) lossless


Статистика раздачи [Обновить пиров]
Размер:  693 MB   |    Зарегистрирован:  8 месяцев 23 дня   |    Скачан:  0 раз

Полного источника не было: Никогда

Личеров:  3  [  0 KB/s  ]   Подробная статистика пиров
 
   
 
 
 

[Цитировать]

Max Reger - Orchestral Works - Norrköping Symphony Orchestra, Leif Segerstam
Жанр: Classical
Страна-производитель диска: Sweden
Год издания диска: 2013
Издатель (лейбл): BIS
Номер по каталогу: BIS-CD-9047
Дата записи: 1993-1996
Аудиокодек: FLAC
Тип рипа: image+.cue
Битрейт аудио: lossless
Продолжительность: 3:23:54
Источник: собственный рип
Наличие сканов в содержимом раздачи: да
Треклист:
Max Reger (1873–1916)
CD1
[1]-[10] Variations and Fugue on a Theme of Mozart, Op. 132 (1914)
[11] Symphonischer Prolog zu einer Tragödie, Op. 108 (1908)
CD2
[1]-[3] Piano Concerto in F minor, Op. 114 (1910)
Love Derwinger piano
[4]-[6] Suite im alten Stil, Op. 93 (1906, orch. 1916)
CD3
[1]-[10] Variations and Fugue on a Theme of Beethoven, Op. 86 (1904, orch. 1915)
[11]-[16] Eine Ballettsuite, Op. 130 (1913)
[17]-[20] Vier Tondichtungen nach Arnold Böcklin, Op. 128 (1913)
Исполнители:
Norrköping Symphony Orchestra
Leif Segerstam
conductor

Лог создания рипа: CD1

Exact Audio Copy V1.0 beta 3 from 29. August 2011
EAC extraction logfile from 16. December 2014, 0:29
Norrkoping Symphony Orchestra, Leif Segerstam / Reger - Orchestral Works - CD1
Used drive : HL-DT-STDVDRAM GU70N Adapter: 0 ID: 0
Read mode : Secure
Utilize accurate stream : Yes
Defeat audio cache : Yes
Make use of C2 pointers : No
Read offset correction : 48
Overread into Lead-In and Lead-Out : No
Fill up missing offset samples with silence : Yes
Delete leading and trailing silent blocks : No
Null samples used in CRC calculations : Yes
Used interface : Native Win32 interface for Win NT & 2000
Used output format : User Defined Encoder
Selected bitrate : 128 kBit/s
Quality : High
Add ID3 tag : No
Command line compressor : C:\Program Files (x86)\Exact Audio Copy\Flac\flac.exe
Additional command line options : -V -8 -T "Date=%year%" -T "Genre=%genre%" %source%
TOC of the extracted CD
Track | Start | Length | Start sector | End sector
---------------------------------------------------------
1 | 0:00.00 | 2:28.42 | 0 | 11141
2 | 2:28.42 | 2:25.73 | 11142 | 22089
3 | 4:54.40 | 1:53.07 | 22090 | 30571
4 | 6:47.47 | 1:23.13 | 30572 | 36809
5 | 8:10.60 | 0:50.00 | 36810 | 40559
6 | 9:00.60 | 1:37.27 | 40560 | 47861
7 | 10:38.12 | 2:21.68 | 47862 | 58504
8 | 13:00.05 | 2:22.50 | 58505 | 69204
9 | 15:22.55 | 7:19.27 | 69205 | 102156
10 | 22:42.07 | 9:28.38 | 102157 | 144794
11 | 32:10.45 | 32:44.47 | 144795 | 292141
Range status and errors
Selected range
Filename C:\temp\BIS-CD-9047 - Reger - Orchestral Works\CD1\Reger - Orchestral Works - CD1.wav
Peak level 100.0 %
Extraction speed 2.1 X
Range quality 100.0 %
Test CRC C9744AE5
Copy CRC C9744AE5
Copy OK
No errors occurred
AccurateRip summary
Track 1 cannot be verified as accurate (confidence 2) [48496E27], AccurateRip returned [B958E65B] (AR v2)
Track 2 cannot be verified as accurate (confidence 2) [E07C8C94], AccurateRip returned [F2B44785] (AR v2)
Track 3 cannot be verified as accurate (confidence 2) [5DC04A83], AccurateRip returned [2EE5C261] (AR v2)
Track 4 cannot be verified as accurate (confidence 2) [30A58763], AccurateRip returned [DFC47F77] (AR v2)
Track 5 cannot be verified as accurate (confidence 2) [CC616180], AccurateRip returned [ADE0C70C] (AR v2)
Track 6 cannot be verified as accurate (confidence 2) [A4584D10], AccurateRip returned [993615F9] (AR v2)
Track 7 cannot be verified as accurate (confidence 2) [5F266417], AccurateRip returned [4601EF23] (AR v2)
Track 8 cannot be verified as accurate (confidence 2) [2F1599AD], AccurateRip returned [2D3182B3] (AR v2)
Track 9 cannot be verified as accurate (confidence 2) [98182D58], AccurateRip returned [BE453BC8] (AR v2)
Track 10 cannot be verified as accurate (confidence 2) [4CF817FF], AccurateRip returned [DA724680] (AR v2)
Track 11 cannot be verified as accurate (confidence 2) [C8DE0A1B], AccurateRip returned [DE0FA99D] (AR v2)
No tracks could be verified as accurate
You may have a different pressing from the one(s) in the database
End of status report
==== Log checksum AE1A05A0AA063BC1F7E7389143EC8095F6A59AEDFA572E9EBF0E7214B11FE4CE ====

Лог создания рипа: CD2

Exact Audio Copy V1.0 beta 3 from 29. August 2011
EAC extraction logfile from 16. December 2014, 1:42
Norrkoping Symphony Orchestra, Leif Segerstam / Reger - Orchestral Works - CD2
Used drive : HL-DT-STDVDRAM GU70N Adapter: 0 ID: 0
Read mode : Secure
Utilize accurate stream : Yes
Defeat audio cache : Yes
Make use of C2 pointers : No
Read offset correction : 48
Overread into Lead-In and Lead-Out : No
Fill up missing offset samples with silence : Yes
Delete leading and trailing silent blocks : No
Null samples used in CRC calculations : Yes
Used interface : Native Win32 interface for Win NT & 2000
Used output format : User Defined Encoder
Selected bitrate : 128 kBit/s
Quality : High
Add ID3 tag : No
Command line compressor : C:\Program Files (x86)\Exact Audio Copy\Flac\flac.exe
Additional command line options : -V -8 -T "Date=%year%" -T "Genre=%genre%" %source%
TOC of the extracted CD
Track | Start | Length | Start sector | End sector
---------------------------------------------------------
1 | 0:00.00 | 20:47.00 | 0 | 93524
2 | 20:47.00 | 12:24.00 | 93525 | 149324
3 | 33:11.00 | 11:01.00 | 149325 | 198899
4 | 44:12.00 | 6:15.00 | 198900 | 227024
5 | 50:27.00 | 8:41.00 | 227025 | 266099
6 | 59:08.00 | 7:58.00 | 266100 | 301949
Range status and errors
Selected range
Filename C:\temp\BIS-CD-9047 - Reger - Orchestral Works\CD2\Reger - Orchestral Works - CD2.wav
Peak level 97.1 %
Extraction speed 2.1 X
Range quality 100.0 %
Test CRC 44EA994E
Copy CRC 44EA994E
Copy OK
No errors occurred
AccurateRip summary
Track 1 accurately ripped (confidence 1) [250AB96B] (AR v2)
Track 2 accurately ripped (confidence 1) [ED08C5EC] (AR v2)
Track 3 accurately ripped (confidence 1) [21F13481] (AR v2)
Track 4 accurately ripped (confidence 2) [AF409AF3] (AR v2)
Track 5 accurately ripped (confidence 2) [618A9FE2] (AR v2)
Track 6 accurately ripped (confidence 2) [D5D3745F] (AR v2)
All tracks accurately ripped
End of status report
==== Log checksum 5CA9EA9A5080BE99C86B9D272FE6E1893E21C8D3A2FCBE4BE2D8C6EC89F70DD2 ====

Лог создания рипа: CD3

Exact Audio Copy V1.0 beta 3 from 29. August 2011
EAC extraction logfile from 16. December 2014, 8:59
Norrkoping Symphony Orchestra, Leif Segerstam / Reger - Orchestral Works - CD3
Used drive : HL-DT-STDVDRAM GU70N Adapter: 0 ID: 0
Read mode : Secure
Utilize accurate stream : Yes
Defeat audio cache : Yes
Make use of C2 pointers : No
Read offset correction : 48
Overread into Lead-In and Lead-Out : No
Fill up missing offset samples with silence : Yes
Delete leading and trailing silent blocks : No
Null samples used in CRC calculations : Yes
Used interface : Native Win32 interface for Win NT & 2000
Used output format : User Defined Encoder
Selected bitrate : 128 kBit/s
Quality : High
Add ID3 tag : No
Command line compressor : C:\Program Files (x86)\Exact Audio Copy\Flac\flac.exe
Additional command line options : -V -8 -T "Date=%year%" -T "Genre=%genre%" %source%
TOC of the extracted CD
Track | Start | Length | Start sector | End sector
---------------------------------------------------------
1 | 0:00.00 | 1:40.42 | 0 | 7541
2 | 1:40.42 | 1:53.43 | 7542 | 16059
3 | 3:34.10 | 1:20.47 | 16060 | 22106
4 | 4:54.57 | 2:12.30 | 22107 | 32036
5 | 7:07.12 | 0:51.73 | 32037 | 35934
6 | 7:59.10 | 2:43.02 | 35935 | 48161
7 | 10:42.12 | 1:28.70 | 48162 | 54831
8 | 12:11.07 | 1:26.45 | 54832 | 61326
9 | 13:37.52 | 2:06.25 | 61327 | 70801
10 | 15:44.02 | 5:53.73 | 70802 | 97349
11 | 21:38.00 | 3:31.00 | 97350 | 113174
12 | 25:09.00 | 3:33.00 | 113175 | 129149
13 | 28:42.00 | 2:38.00 | 129150 | 140999
14 | 31:20.00 | 3:35.00 | 141000 | 157124
15 | 34:55.00 | 2:54.40 | 157125 | 170214
16 | 37:49.40 | 3:09.35 | 170215 | 184424
17 | 40:59.00 | 11:15.00 | 184425 | 235049
18 | 52:14.00 | 4:29.00 | 235050 | 255224
19 | 56:43.00 | 10:13.00 | 255225 | 301199
20 | 66:56.00 | 4:56.00 | 301200 | 323399
Range status and errors
Selected range
Filename C:\temp\BIS-CD-9047 - Reger - Orchestral Works\CD3\Reger - Orchestral Works - CD3.wav
Peak level 100.0 %
Extraction speed 2.3 X
Range quality 99.9 %
Test CRC 4BB38FCC
Copy CRC 4BB38FCC
Copy OK
No errors occurred
AccurateRip summary
Track 1 accurately ripped (confidence 2) [54EA761A] (AR v2)
Track 2 accurately ripped (confidence 2) [DC82C87D] (AR v2)
Track 3 accurately ripped (confidence 2) [D199BFDB] (AR v2)
Track 4 accurately ripped (confidence 2) [97A27F6B] (AR v2)
Track 5 accurately ripped (confidence 2) [67BE9A42] (AR v2)
Track 6 accurately ripped (confidence 2) [21C2968C] (AR v2)
Track 7 accurately ripped (confidence 2) [07AE1C9F] (AR v2)
Track 8 accurately ripped (confidence 2) [E23989D3] (AR v2)
Track 9 accurately ripped (confidence 2) [66255B60] (AR v2)
Track 10 accurately ripped (confidence 2) [BA99C661] (AR v2)
Track 11 accurately ripped (confidence 2) [6CBB3831] (AR v2)
Track 12 accurately ripped (confidence 2) [B2BD4194] (AR v2)
Track 13 accurately ripped (confidence 2) [F809EB21] (AR v2)
Track 14 accurately ripped (confidence 2) [3A21ADC5] (AR v2)
Track 15 accurately ripped (confidence 2) [CCD40B3A] (AR v2)
Track 16 accurately ripped (confidence 2) [354B54BD] (AR v2)
Track 17 accurately ripped (confidence 2) [2D394B8D] (AR v2)
Track 18 accurately ripped (confidence 2) [0ABB9FB1] (AR v2)
Track 19 accurately ripped (confidence 2) [420050E8] (AR v2)
Track 20 accurately ripped (confidence 2) [7A54C4EB] (AR v2)
All tracks accurately ripped
End of status report
==== Log checksum 4626757658344CA2EA774099FC30734AA05E07B418DCD49DECE93192894C07C6 ====
[teatrix.ru].t19849.torrent 
Торрент: Зарегистрирован [ 2016-03-19 00:21 ] · 26B4406D72B1DE5EF4AF1A3DDBD3B862087EE579

Скачать .torrent

Скачать

29 KB

Статус: проверено
Скачан: 0 раз
Размер: 693 MB
terms.php



Быстрый ответ

Имя:

      
Для отправки сообщений необходимо включить JavaScript
Показать сообщения:    

Текущее время: 11-Дек 05:22

Часовой пояс: UTC + 3


Вы можете начинать темы
Вы можете отвечать на сообщения
Вы не можете редактировать свои сообщения
Вы не можете удалять свои сообщения
Вы не можете голосовать в опросах
Вы не можете прикреплять файлы к сообщениям
Вы можете скачивать файлы