Гарнир по-французски (Аскер Аскеров) [2011 г., Азербайджан, комедия, CAMRip] Азербайджанский Государственный театр музыкальной комедии


 

[Цитировать]

Гарнир по-французски Название театра: Азербайджанский Государственный театр музыкальной комедии.
Год выпуска: 2011.
Страна: Азербайджан .
Жанр: комедия.
Продолжительность: 02:16:11.
Язык: русский.
Режиссер: заслуженный деятель искусств Азербайджана Аскер Аскеров, заслуженный артист Азербайджана Борис Графкин.
Действующие лица и исполнители:
Бернард - Рауф Бабаев,
Жаклин - Марина Литвиненко,
Роберт - Эмиль Гейдаров,
Сюзетта - Светлана Булах,
Джордж - Алимамед Новрузов,
Сюзанна - Юлия Гейдарова,
Артисты балета театра.
О спектакле:
Спектакль "Гарнир по-французски" по одноименной пьесе драматурга МАрка Камолетти шел на сцене Клуба Моряков. Сюжет пьесы затягивает, заставляет искренне сопереживать героям. Обычная жизненная ситуация (любовный треугольник) разворачивается так, что становится уже не понятным кто, есть кто, превращаясь из треугольника в многогранник юмора и веселья. Смешенье людей, присвоение ими чужих ролей, исполнение их в критических для них ситуациях - и есть тот самый "гарнир", который придется по вкусу любому театральному гурману. Остроумные фразы, колкие высказывания, юмор, сарказм - все это, в полной мере, присутствует в этой постановке.
Дополнительная информация:
К сожалению, качество материала не очень, но имеем то, что имеем...
Автор: Марк Камолетти.
Перевод Дмития Островского.
Режиссер-постановщик: заслуженный деятель искусств Азербайджана Аскер Аскеров.
Режиссер: заслуженный артист Азербайджана Борис Графкин.
Художник-постановщик: Набат Самедова.
Музыкальный руководитель: заслуженный деятель искусств Азербайджана Назим Гаджибеков.
Музыкальное оформление: Эмин Гасанов.
Балетмейстеры: Закир Агаев, Елена Агаева.
Художник по костюмам: Нубар Гусейнова.
Съемка и монтаж: Видади Гасанов.
Запись: 24 октября 2011 года.
Релиз
Рип sharky.

Качество видео:...CAMRip
Формат:.................AVI
Видео:..704x400 (1.76:1), 25 fps, XviD build 50 ~1323 kbps avg, 0.19 bit/pixel
Аудио:..48 kHz, AC3 Dolby Digital, 2/0 (L,R) ch, ~192 kbps

Отчет MI

Общее
Полное имя : Garnir.po.francuzski_Azerbajdzhanskij.GTMK.2011.XviD.CAMRip.fenixclub.avi
Format : AVI
Format/Info : Audio Video Interleave
File size : 1.45 GiB
Duration : 2h 16mn
Overall bit rate : 1 525 Kbps
Movie name : Garnir.po.francuzski_Azerbajdzhanskij.GTMK.2011.XviD.CamRip.fenixclub.avi
Writing application : VirtualDubMod 1.5.10.3 | www.virtualdub-fr.org || (build 2550/release)
Video
ID : 0
Format : MPEG-4 Visual
Format profile : Advanced Simple@L5
Format settings, BVOP : 1
Format settings, QPel : No
Format settings, GMC : No warppoints
Format settings, Matrix : Default (H.263)
Codec ID : XVID
Codec ID/Hint : XviD
Duration : 2h 16mn
Bit rate : 1 323 Kbps
Width : 704 pixels
Height : 400 pixels
Display aspect ratio : 16:9
Frame rate : 25.000 fps
Color space : YUV
Chroma subsampling : 4:2:0
Bit depth : 8 bits
Scan type : Progressive
Compression mode : Lossy
Bits/(Pixel*Frame) : 0.188
Stream size : 1.26 GiB (87%)
Writing library : XviD 1.2.1 (UTC 2008-12-04)
Audio
ID : 1
Format : AC-3
Format/Info : Audio Coding 3
Mode extension : CM (complete main)
Format settings, Endianness : Big
Codec ID : 2000
Duration : 2h 16mn
Bit rate mode : Constant
Bit rate : 192 Kbps
Channel(s) : 2 channels
Channel positions : Front: L R
Sampling rate : 48.0 KHz
Bit depth : 16 bits
Compression mode : Lossy
Stream size : 187 MiB (13%)
Alignment : Split accross interleaves
Interleave, duration : 40 ms (1.00 video frame)
Interleave, preload duration : 500 ms.

Скриншоты


Альтернативный хост





Показать сообщения:    

Текущее время: 07-Дек 21:19

Часовой пояс: UTC + 3


Вы не можете начинать темы
Вы не можете отвечать на сообщения
Вы не можете редактировать свои сообщения
Вы не можете удалять свои сообщения
Вы не можете голосовать в опросах
Вы не можете прикреплять файлы к сообщениям
Вы не можете скачивать файлы