(Opera) Falla - La vida breve (Sanchez, Valls, Nafe, Echeverria, Baquerizo, Suarez - Asturias Symphonic Orchestra, Valdes) - 2004, APE (image+.cue) lossless


 

[Цитировать]

Manuel de Falla (1876-1946) - La vida breve
Жанр: Opera
Страна-производитель диска: EU
Год издания диска: 2004
Издатель (лейбл): Naxos
Номер по каталогу: 8.660155
Дата записи: 2002
Аудиокодек: APE
Тип рипа: image+.cue
Битрейт аудио: lossless
Продолжительность: 63'31
Источник: собственный рип
Наличие сканов в содержимом раздачи: да
Треклист:
1. Act I Tableau I: Scene 1: Ande le tarea, que hay que trabajar!
2. Act I Tableau I: Scene 2: Abuela, no viene!
3. Act I Tableau I: Scene 2: Ah! ... Ah! ... Ah! ... Ah! Obreros en la fragua
4. Act I Tableau I: Scene 4: Salud!
5. Act I Tableau I: Scene 5: Paco! Paco!
6. Act I Tableau I: Scene 6: Paco! Paco! Siempre juntos!
7. Act I Tableau II: Intermedio
8. Act II Tableau I: Scene 1: Ole! Ole! ya!
9. Act II Tableau I: Danza
10. Act II Tableau I: Scene 2: Alli esta! Riyendo, junto a esa muje!
11. Act II Tableau I: Scene 3: No te dije? La ves?
12. Act II Tableau II: Danza
13. Act II Tableau II: Scene 1: Carmela mia!
14. Act II Tableau II: Final Scene: Que gracia! Que buscan ustedes aqui?
Исполнители:
Manuel de Falla (1876-1946) - La vida breve
Lyric Drama in two acts and four tableaus
Libretto: Carlos Fernandez Shaw
Salud - Ana Maria Sanchez (Soprano)
Paco - Vincente Ombuena Valls (Tenor)
La Abuela - Alicia Nafé (Mezzo Soprano)
El Tio Sarvaor - Alfonso Echeverria (Bass)
Manuel - Enrique Baquerizo (Bass)
Carmela - Maria José Suárez (Alto)
La Voz de la Fragua - Manuel Cid (Tenor)
Cantaor - Pedro Saenz (Tenor)
Prince of Asturias Foundation Choir
Asturias Symphonic Orchestra,
Maximiano Valdés
Language: Spanish

Лог создания рипа

Exact Audio Copy V1.0 beta 3 from 29. August 2011
EAC extraction logfile from 14. December 2014, 13:53
Falla / La Vida Breve, Valdés
Used drive : TSSTcorpCDDVDW SE-208AB Adapter: 1 ID: 0
Read mode : Secure
Utilize accurate stream : Yes
Defeat audio cache : Yes
Make use of C2 pointers : No
Read offset correction : 6
Overread into Lead-In and Lead-Out : No
Fill up missing offset samples with silence : Yes
Delete leading and trailing silent blocks : No
Null samples used in CRC calculations : Yes
Used interface : Native Win32 interface for Win NT & 2000
Used output format : Monkey's Audio Lossless Encoder
Selected bitrate : High Lossless Compression
Quality : High
Add ID3 tag : Yes
Command line compressor : C:\Program Files (x86)\Exact Audio Copy\MAC\MAC.exe
TOC of the extracted CD
Track | Start | Length | Start sector | End sector
---------------------------------------------------------
1 | 0:00.00 | 8:23.15 | 0 | 37739
2 | 8:23.15 | 3:54.10 | 37740 | 55299
3 | 12:17.25 | 7:11.25 | 55300 | 87649
4 | 19:28.50 | 1:02.40 | 87650 | 92339
5 | 20:31.15 | 3:18.23 | 92340 | 107212
6 | 23:49.38 | 3:54.56 | 107213 | 124818
7 | 27:44.19 | 7:36.48 | 124819 | 159066
8 | 35:20.67 | 2:55.19 | 159067 | 172210
9 | 38:16.11 | 3:29.45 | 172211 | 187930
10 | 41:45.56 | 4:06.55 | 187931 | 206435
11 | 45:52.36 | 7:44.30 | 206436 | 241265
12 | 53:36.66 | 3:38.55 | 241266 | 257670
13 | 57:15.46 | 1:39.00 | 257671 | 265095
14 | 58:54.46 | 4:34.12 | 265096 | 285657
Range status and errors
Selected range
Filename D:\EAC\Falla - La Vida Breve, Valdés.wav
Peak level 99.6 %
Extraction speed 5.0 X
Range quality 100.0 %
Test CRC 1694391C
Copy CRC 1694391C
Copy OK
No errors occurred
AccurateRip summary
Track 1 accurately ripped (confidence 4) [07606A57] (AR v1)
Track 2 accurately ripped (confidence 4) [22957A83] (AR v1)
Track 3 accurately ripped (confidence 4) [56A796BC] (AR v1)
Track 4 accurately ripped (confidence 4) [F617F9FA] (AR v1)
Track 5 accurately ripped (confidence 4) [D19AD8B1] (AR v1)
Track 6 accurately ripped (confidence 4) [30826023] (AR v1)
Track 7 accurately ripped (confidence 4) [88893948] (AR v1)
Track 8 accurately ripped (confidence 4) [06E980DD] (AR v1)
Track 9 accurately ripped (confidence 4) [D97AE487] (AR v1)
Track 10 accurately ripped (confidence 4) [371EE06A] (AR v1)
Track 11 accurately ripped (confidence 4) [E5867119] (AR v1)
Track 12 accurately ripped (confidence 4) [E0704322] (AR v1)
Track 13 accurately ripped (confidence 4) [6DEFD275] (AR v1)
Track 14 accurately ripped (confidence 4) [6222A910] (AR v1)
All tracks accurately ripped
End of status report
---- CUETools DB Plugin V2.1.3
[CTDB TOCID: iDYtyHeujaxGXqj7hG7hCyn6Z8Y-] found, Submit result: iDYtyHeujaxGXqj7hG7hCyn6Z8Y- has been confirmed
[615f8f5c] (1/1) Accurately ripped
==== Log checksum F1EA2C8CAEF4E94073B3162FBA6230DD590D4F39D20C0A49DFFB74ACD87F63A5 ====

Содержание индексной карты (.CUE)

REM GENRE Opera
REM DATE 2002
REM DISCID B90EE00E
REM COMMENT "ExactAudioCopy v1.0b3"
PERFORMER "Falla"
TITLE "La Vida Breve, Valdés"
FILE "Falla - La Vida Breve, Valdés.ape" WAVE
TRACK 01 AUDIO
TITLE "Act1 Sc1 Ande le Tarea, que hay que trabajar"
PERFORMER "Falla"
ISRC HKI190235701
INDEX 01 00:00:00
TRACK 02 AUDIO
TITLE "Act1 Sc2 Abuela, No viene!"
PERFORMER "Falla"
ISRC HKI190235702
INDEX 01 08:23:15
TRACK 03 AUDIO
TITLE "Act1 Sc3 Ah! Ah! Ah!"
PERFORMER "Falla"
ISRC HKI190235703
INDEX 01 12:17:25
TRACK 04 AUDIO
TITLE "Act1 Sc4 Salud!"
PERFORMER "Falla"
ISRC HKI190235704
INDEX 01 19:28:50
TRACK 05 AUDIO
TITLE "Act1 Sc5 Paco!, Paco!"
PERFORMER "Falla"
ISRC HKI190235705
INDEX 01 20:31:15
TRACK 06 AUDIO
TITLE "Act1 Sc6 Paco! Paco! Siempre Juntos!"
PERFORMER "Falla"
ISRC HKI190235706
INDEX 01 23:49:38
TRACK 07 AUDIO
TITLE " Intermedio"
PERFORMER "Falla"
ISRC HKI190235707
INDEX 01 27:44:19
TRACK 08 AUDIO
TITLE "Act2 Sc1 Ole, Ole ya! /Bravo! Bravo!"
PERFORMER "Falla"
ISRC HKI190235708
INDEX 00 35:14:42
INDEX 01 35:20:67
TRACK 09 AUDIO
TITLE "Act 2 Danza"
PERFORMER "Falla"
ISRC HKI190235709
INDEX 01 38:16:11
TRACK 10 AUDIO
TITLE "Act2 Sc2 Alli esta! Riyendo, juntojunto a esa mujer!"
PERFORMER "Falla"
ISRC HKI190235710
INDEX 01 41:45:56
TRACK 11 AUDIO
TITLE "Act 2 Sc3 No te dije?"
PERFORMER "Falla"
ISRC HKI190235710
INDEX 01 45:52:36
TRACK 12 AUDIO
TITLE "Act 2 Danza"
PERFORMER "Falla"
ISRC HKI190235712
INDEX 01 53:36:66
TRACK 13 AUDIO
TITLE "Act2 Tab 2 Sc1 Carmela Mia"
PERFORMER "Falla"
ISRC HKI190235713
INDEX 01 57:15:46
TRACK 14 AUDIO
TITLE "Act2 last scene Que cracia! Que buscan ustedes aqui"
PERFORMER "Falla"
ISRC HKI190235714
INDEX 01 58:54:46
Доп. информация:
Manuel de Falla's La Vida Breve (Life is Short)seems to be appropriately named, for philosophical and practical reasons.
At just over 1 hour (and no more) in length, the opera puts fiery Andalucian color into the fatalistic notion that life is indeed limited, so maximize one's opportunities.
With a fine Spanish cast and the excellent Asturias Symphony Orchestra, this Naxos recording vividly brings to life the colors and atmospherics of the Spanish gypsy life style, centered here in the famous Andalucian city of Granada.
The perennial operatic theme of betrayed love is the work's foundation, leading naturally to tragic consequences.
The libretto is wonderfully sung.
Spain may not be known for producing major, large scale operatic works, but La Vida Breve does have a strong artistic statement to make, albeit a shortened one.
Synopsis:
Place: Granada
Act 1
Afternoon and sunset in the (gypsy) Albaicín district.
A male chorus of anvil workers plies their trade at the local forge.
The young gypsy, Salud, is passionately in love with a young well-to-do man named Paco.
She does not know, and Paco does not tell her, that he is already engaged to one woman of his social class.
Her uncle, Salvaor and grandmother, La abuela have discovered this, and they try to prevent Salud from interrupting Paco's wedding after she learns the truth.
Act 2
A wealthier part of the city: in front of a house on whose patio wedding festivities are in progress (and visible from the street), and then in the patio itself.
Confrontation (which from several perspectives is the theme of the whole opera) occurs after Salud and Salvaor gate-crash the festivities, astonishing the bride and the guests and momentarily throwing the mendacious groom so much off his guard that he utters Salud's name before denying he knows her and ordering her ejection.
Her heart broken, Salud falls dead at his feet, in what is said to be the ultimate gesture of contempt for a former lover.



Показать сообщения:    

Текущее время: 04-Дек 17:15

Часовой пояс: UTC + 3


Вы не можете начинать темы
Вы не можете отвечать на сообщения
Вы не можете редактировать свои сообщения
Вы не можете удалять свои сообщения
Вы не можете голосовать в опросах
Вы не можете прикреплять файлы к сообщениям
Вы не можете скачивать файлы