(Classical) Weill - Vom tod im Wald * Concerto for violin & wind orchestra * Das Berliner Requiem (Kooij, Laiter - La Chapelle Royale / Ensemble Musique Oblique, Herreweghe) - 2006, APE (image+.cue) lossless


Статистика раздачи [Обновить пиров]
Размер:  183 MB   |    Зарегистрирован:  8 месяцев 19 дней   |    Скачан:  0 раз

Полного источника не было: Никогда

Личеров:  3  [  0 KB/s  ]   Подробная статистика пиров
 
   
 
 
 

[Цитировать]

Kurt Weill - Das Berliner Requiem
Vom tod im Wald * Violinkonzert
Жанр: Classical
Страна-производитель диска: Austria
Год издания диска: 2006
Издатель (лейбл): Harmonia Mundi
Номер по каталогу: HMA 1951422
Дата записи: 1992
Аудиокодек: APE
Тип рипа: image+.cue
Битрейт аудио: lossless
Продолжительность: 54'20
Источник: собственный рип
Наличие сканов в содержимом раздачи: да
Треклист:
Ballad for bass & 10 wind instruments, Op. 23
1. Vom tod im Wald (Death in the Forest)Concerto for violin & wind orchestra, Op. 12
2. I. Andante
3. II. Notturno
4. Cadenza
5. Serenata
6. III. Allegro Molto, Un Poco AgitatoDas Berliner Requiem, cantata for tenor, baritone, male chorus & wind orchestra
7. Großer Dankchoral. Sostenuto
8. Ballade Vom Ertrunkenen Mädchen. Lento
9. Marterl. Andante Moderato
10. Erster Bericht Über Den Unbekannten Soldaten Unter Dem Triumph Bogen. Moderato Assai
11. Zweiter Bericht Über Den Unbekannten Soldaten Unter Dem Triumph Bogen. Rezitativ
12. Großer Dankchoral [Da Capo]
Исполнители:
Alexandre Laiter, tenor
Peter Kooij, bass
Elisabeth Glab, Violin
Choeur de La Chapelle Royale
Ensemble Musique Oblique
Philippe Herreweghe

Лог создания рипа

Exact Audio Copy V1.0 beta 3 from 29. August 2011
EAC extraction logfile from 21. December 2014, 12:40
Weill / Vom Tod im Wald_Violinkonzert_Berliner Requiem, Herreweghe
Used drive : TSSTcorpCDDVDW SE-208AB Adapter: 1 ID: 0
Read mode : Secure
Utilize accurate stream : Yes
Defeat audio cache : Yes
Make use of C2 pointers : No
Read offset correction : 6
Overread into Lead-In and Lead-Out : No
Fill up missing offset samples with silence : Yes
Delete leading and trailing silent blocks : No
Null samples used in CRC calculations : Yes
Used interface : Native Win32 interface for Win NT & 2000
Used output format : Monkey's Audio Lossless Encoder
Selected bitrate : High Lossless Compression
Quality : High
Add ID3 tag : Yes
Command line compressor : C:\Program Files (x86)\Exact Audio Copy\MAC\MAC.exe
TOC of the extracted CD
Track | Start | Length | Start sector | End sector
---------------------------------------------------------
1 | 0:00.32 | 8:00.60 | 32 | 36091
2 | 8:01.17 | 9:43.48 | 36092 | 79864
3 | 17:44.65 | 3:20.35 | 79865 | 94899
4 | 21:05.25 | 3:41.55 | 94900 | 111529
5 | 24:47.05 | 3:42.62 | 111530 | 128241
6 | 28:29.67 | 7:23.30 | 128242 | 161496
7 | 35:53.22 | 3:04.13 | 161497 | 175309
8 | 38:57.35 | 2:06.32 | 175310 | 184791
9 | 41:03.67 | 1:59.45 | 184792 | 193761
10 | 43:03.37 | 4:15.18 | 193762 | 212904
11 | 47:18.55 | 5:25.52 | 212905 | 237331
12 | 52:44.32 | 1:38.33 | 237332 | 244714
Range status and errors
Selected range
Filename D:\EAC\Weill - Vom Tod im Wald_Violinkonzert_Berliner Requiem, Herreweghe.wav
Peak level 89.5 %
Extraction speed 4.3 X
Range quality 99.9 %
Test CRC 591FBC45
Copy CRC 591FBC45
Copy OK
No errors occurred
AccurateRip summary
Track 1 accurately ripped (confidence 8) [C6239766] (AR v2)
Track 2 accurately ripped (confidence 8) [FCAD6655] (AR v2)
Track 3 accurately ripped (confidence 8) [E97C646E] (AR v2)
Track 4 accurately ripped (confidence 8) [2760D8E4] (AR v2)
Track 5 accurately ripped (confidence 8) [0D3EC50B] (AR v2)
Track 6 accurately ripped (confidence 8) [BA551891] (AR v2)
Track 7 accurately ripped (confidence 8) [8D53D731] (AR v2)
Track 8 accurately ripped (confidence 8) [F5D7AB6B] (AR v2)
Track 9 accurately ripped (confidence 8) [349F0105] (AR v2)
Track 10 accurately ripped (confidence 8) [B44890EA] (AR v2)
Track 11 accurately ripped (confidence 8) [E983A118] (AR v2)
Track 12 accurately ripped (confidence 8) [15123112] (AR v2)
All tracks accurately ripped
End of status report
---- CUETools DB Plugin V2.1.3
[CTDB TOCID: 4lB8dPFRyavNcFCindyv.t0Lt90-] disk not present in database, Submit result: discs with pregaps not supported in this protocol version
==== Log checksum 56F2896CD13A3BA309EF5E8FE70314812AE04D5EF4BCBE0B78AEDC93CDCDF9EA ====

Содержание индексной карты (.CUE)

REM GENRE Chorus
REM DATE 1992
REM DISCID AF0CBE0C
REM COMMENT "ExactAudioCopy v1.0b3"
PERFORMER "Weill"
TITLE "Vom Tod im Wald_Violinkonzert_Berliner Requiem, Herreweghe"
FILE "Weill - Vom Tod im Wald_Violinkonzert_Berliner Requiem, Herreweghe.ape" WAVE
TRACK 01 AUDIO
TITLE "Vom Tod im Wald, Op.23 (1927)"
PERFORMER "Weill"
ISRC FRZ149227010
INDEX 00 00:00:00
INDEX 01 00:00:32
TRACK 02 AUDIO
TITLE "Violinkonzert, Op.12 (1925) - I. Andante con moto"
PERFORMER "Weill"
ISRC FRZ149227020
INDEX 00 07:50:72
INDEX 01 08:01:17
TRACK 03 AUDIO
TITLE "Violinkonzert, Op.12 (1925) - II. Noturno"
PERFORMER "Weill"
ISRC FRZ149227030
INDEX 00 17:42:50
INDEX 01 17:44:65
TRACK 04 AUDIO
TITLE "Violinkonzert, Op.12 (1925) - II. Cadenza"
PERFORMER "Weill"
ISRC FRZ149227040
INDEX 00 21:04:12
INDEX 01 21:05:25
TRACK 05 AUDIO
TITLE "Violinkonzert, Op.12 (1925) - II. Serenata"
PERFORMER "Weill"
ISRC FRZ149227050
INDEX 01 24:47:05
TRACK 06 AUDIO
TITLE "Violinkonzert, Op.12 (1925) - III. Allegro molto, un poco agitato"
PERFORMER "Weill"
ISRC FRZ149227060
INDEX 00 28:26:55
INDEX 01 28:29:67
TRACK 07 AUDIO
TITLE "Das Berliner Requiem - Großer Dankchoral. Sostenuto (1928)"
PERFORMER "Weill"
ISRC FRZ149227070
INDEX 00 35:47:07
INDEX 01 35:53:22
TRACK 08 AUDIO
TITLE "Das Berliner Requiem - Ballade vom ertrunkenen Mäedchen. Lento"
PERFORMER "Weill"
ISRC FRZ149227080
INDEX 00 38:55:12
INDEX 01 38:57:35
TRACK 09 AUDIO
TITLE "Das Berliner Requiem - Marterl, Andante moderato"
PERFORMER "Weill"
ISRC FRZ149227090
INDEX 00 41:02:57
INDEX 01 41:03:67
TRACK 10 AUDIO
TITLE "Das Berliner Requiem - Erster Bericht üeber den Unbekannten Soldaten unter de..."
PERFORMER "Weill"
ISRC FRZ149227100
INDEX 00 43:00:15
INDEX 01 43:03:37
TRACK 11 AUDIO
TITLE "Das Berliner Requiem - Zweiter Bericht üeber den Unbekannten Soldaten unter d..."
PERFORMER "Weill"
ISRC FRZ149227110
INDEX 01 47:18:55
TRACK 12 AUDIO
TITLE "Das Berliner Requiem - Großer Dankchoral [Da capo]"
PERFORMER "Weill"
ISRC FRZ149227120
INDEX 00 52:44:10
INDEX 01 52:44:32
Доп. информация:
This is rather unusual: Baroque expert, advocate of French music and of Johann Sebastian Bach's cantatas, Philippe Herreweghe took up the cause of Kurt Weill's early, neglected concert works.
Weill is among a small number of twentieth-century composers Herreweghe does conduct from time to time, Stravinsky and Schoenberg being the other main ones.
Recorded at IRCAM in 1992, Harmonia Mundi's Kurt Weill: Berliner Requiem features Weill's first collaboration with lyricist and playwright Bertolt Brecht, along with "Vom Tod in Wald," a seldom-heard single chorus resulting from their union, and Weill's early Violin Concerto, written as Weill was leaving the nest from Busoni's master class and first coming into contact with the music of Stravinsky.
"Vom Tod in Wald" is not a work of the quality whereby qualitative distinctions matter much unless it is a particularly poor performance, and this is not so.
The Berlin Requiem is a little off its game in terms of pace and timing; if Lotte Lenya's 1955 recording of the piece is to be taken as authoritative, the "Ballade vom ertrunken Mädchen" is rushed and certainly less effective than in Lenya's version.
With the Concerto for violin and wind band, Op. 12, both Herreweghe and his violin soloist Elisabeth Glab emphasize coolness, crispness, and distance over most other factors in this neo-classical concerto, though listeners experienced with this work -- it too has been available on recordings since 1955, when it was recorded by Anahid Ajemian -- might note a lack of jazzy swagger in this rather dry run of Weill's concerto.
Nevertheless, while a little uncharacteristic, it is impossible to describe this recording as "bad"; Herreweghe knows where all the notes are, puts them in the right places, and in the main, these are proficient and serviceable, rather than passionate, interpretations.
Herreweghe represents Weill at his most cool and objective, a somewhat surprising result from a conductor who is able to draw so much warmth from Bach and Rameau.
This is the original 1992 release; Harmonia Mundi has reissued this Herreweghe title at least twice, and it remains available in Harmonia's Musique d'Abord series.
[teatrix.ru].t19854.torrent 
Торрент: Зарегистрирован [ 2016-03-19 00:21 ] · D2017744720B6890724BE39B823DCD9178A803E1

Скачать .torrent

Скачать

15 KB

Статус: проверено
Скачан: 0 раз
Размер: 183 MB
terms.php



Быстрый ответ

Имя:

      
Для отправки сообщений необходимо включить JavaScript
Показать сообщения:    

Текущее время: 07-Дек 15:31

Часовой пояс: UTC + 3


Вы можете начинать темы
Вы можете отвечать на сообщения
Вы не можете редактировать свои сообщения
Вы не можете удалять свои сообщения
Вы не можете голосовать в опросах
Вы не можете прикреплять файлы к сообщениям
Вы можете скачивать файлы