Чаплин: балет Марио Шредера (Лейпцигский балет; Маттиас Форемни) / Chaplin: A Ballett by Mario Schroder (Leipzig Ballet; Matthias Foremny) [2013, Balet, Blu-ray 1080i]


 

[Цитировать]

Чаплин: балет Марио Шредера / Chaplin: A Ballett by Mario Schröder
Год выпуска: 2013
Лейбл: EUROARTS, Leipzig Opera, Mezzo, MDR, Arte, FT
Страна-производитель: Великобритания, Германия, Франция
Жанр: Balet
Продолжительность: 01:39:12
Язык: Английский
Субтитры: Английские, немецкие, французские
Хореограф: Mario Schröder (Марио Шредер)
Дирижер: Matthias Foremny (Маттиас Форемни)
Исполнители:
Tyler Galster (Тайлер Галстер) - Chaplin,
Amelia Waller (Амелия Уоллер) - Tramp,
Urania Lobo García (Урания Лобо Гарсия) - Mother,
Alexander Teutscher (Александр Теучер) - Father,
Vanessa Shield (Ванесса Шилдс) - Mildred,
Isis Calil de Albuquerque (Исида Джалила де Альбукерке) - Paulette,
Romy Avemarg (Роми Авемарг) - Oona,
Oliver Preiß (Оливер Прейс) - Dictator
Leipzig Ballet (Лейпцигский балет), Gewandhaus Orchestra (Лейпцигский оркестр Гевандхауза)
Описание: Балетная труппа Лейпцигского оперного театра была основана вместе с театром в 17 веке. Ее расцвет, как отдельного компонента театра, пришелся на 40-е годы XX века, когда с ней работала Мари Вигман. С приходом в 2009 году на пост главного хореографа Марио Шрёдера, в театре продолжают экспериментировать с балетными постановками. Первыми хитами Шрёдера стали «Джим Моррисон», полностью состоящий из знаменитых песен группы The Doors, и «Чаплин» на музыку из фильмов с участием Чарли Чаплина.
Маленький человек со смешными усиками... Его шляпа-котелок и тросточка известны во всём мире. Но кто тот человек, который скрывается за этим образом? Именно этим размышлениям и посвящен балет хореографа Марио Шрёдера. Путь к славе сделал Чаплина фигурой, к которой проявляли и продолжают проявлять интерес во всем мире. Комик стал политической фигурой. Правда, американские обыватели с недоверием отнеслись к убеждениям Чаплина. Из-за подозрений в приверженности идеям коммунизма Чаплин в конце концов был вынужден покинуть Америку. Балет рассказывает, как жизнь и творчество были взаимосвязаны в жизни великого Чарли Чаплина.
В балете звучит музыка Чарли Чаплина, Джона Адамса, Руджеро Леонкавалло, Альфреда Шнитке, Колина Мэтьюса, Самюэля Барбера, Бенджамина Бриттена, Рихарда Вагнера, Ханса Вернера Хенце, Брамса и других композиторов.

Оригинальное описание

The little guy with his mustache, his bowler hat and his bamboo cane is world-famous. But, who is the man behind this figure? Mario Schröder wondered the same thing when choreographing “Chaplin”. His rise to fame makes Chaplin a person of public interest. The clown becomes political. America’s conservatives are, however, suspicious of Chaplin’s convictions. Suspected of communism, he is eventually expelled. The ballet describes Chaplin’s life in relation to his creative work and shows that an artist who observes his environment both sensitively and consciously is behind the funny Tramp.
Recorded live at the Leipzig Opera, October 2013.
Бонус: Introduction to Chaplin
Качество видео: Blu-ray
Формат/Контейнер: BDMV
Видео кодек: MPEG4
Аудио кодек: LPCM, DTS
Видео поток: MPEG-4 Video, 1920x1080, 20925 kbps, 29.970 fps
Аудио поток: LPCM, 2304 kbps, 48 kHz, 2 ch. LPCM, 3582 kbps, 48 kHz, 6 ch

BD-Info

DISC INFO:
Disc Title: Чаплин (Leipzig Ballet, Mario Schroder) (2013) (Blu-ray 1080i, AVC, DTS-HD 5.1)
Disc Size: 23 665 118 364 bytes
Protection: AACS
BD-Java: No
BDInfo: 0.5.8
PLAYLIST REPORT:
Name: 00000.MPLS
Length: 1:39:12.446 (h:m:s.ms)
Size: 21 090 134 016 bytes
Total Bitrate: 28,34 Mbps
VIDEO:
Codec Bitrate Description
----- ------- -----------
MPEG-4 AVC Video 20925 kbps 1080i / 29,970 fps / 16:9 / High Profile 4.1
AUDIO:
Codec Language Bitrate Description
----- -------- ------- -----------
LPCM Audio Undetermined 2304 kbps 2.0 / 48 kHz / 2304 kbps / 24-bit
DTS-HD Master Audio Undetermined 3582 kbps 5.1 / 48 kHz / 3582 kbps / 24-bit (DTS Core: 5.1 / 48 kHz / 1509 kbps / 24-bit)
SUBTITLES:
Codec Language Bitrate Description
----- -------- ------- -----------
Presentation Graphics English 2,302 kbps
Presentation Graphics German 1,136 kbps
Presentation Graphics French 3,165 kbps
FILES:
Name Time In Length Size Total Bitrate
---- ------- ------ ---- -------------
00000.M2TS 0:00:00.000 1:38:50.024 21 086 914 560 28 448
00009.M2TS 1:38:50.024 0:00:14.047 1 112 064 633
00008.M2TS 1:39:04.071 0:00:08.041 2 095 104 2 084
00007.M2TS 1:39:12.112 0:00:00.333 12 288 295

Скриншоты


Скриншоты доп. материалов



[Цитировать]

Уважаемый товарищ Автор!
Может как-нибудь оживите раздачу - решила скачать для проверки и восстановления мозгов, увидав свеженький и совсем неизвестный материал.
Облом - никого на раздаче нет!
Подозреваю, что еще не вернулись с гастролей, поэтому - ждем-с!

[Цитировать]

gaga, смело качайте, пиры подключатся уже в вашем клиенте.
даже если никого нет на раздаче.


Показать сообщения:    

Текущее время: 09-Дек 03:01

Часовой пояс: UTC + 3


Вы не можете начинать темы
Вы не можете отвечать на сообщения
Вы не можете редактировать свои сообщения
Вы не можете удалять свои сообщения
Вы не можете голосовать в опросах
Вы не можете прикреплять файлы к сообщениям
Вы не можете скачивать файлы