(Opera) Mozart: Le Nozze di Figaro - Pantscheff, Felbermayer, London, Carelli, Tozzi, Peters, Della Casa, Elias, Warfield, Corena, Leinsdorf - 1996, FLAC (tracks+.cue) lossless


 

[Цитировать]

• Wolfgang Amadeus Mozart •
• Le nozze di Figaro, K 492 •


Жанр: Opera
Страна-производитель диска: Germany
Год издания диска: 1996
Издатель (лейбл): Decca
Номер по каталогу: 444602
Дата записи: 06/1958
Аудиокодек: FLAC
Тип рипа: tracks+.cue
Битрейт аудио: lossless
Продолжительность: 2:45:36
Источник: скачано с
Наличие сканов в содержимом раздачи: да
Исполнители:
Ljubomir Pantscheff (Bass) | Anny Felbermayer (Soprano) | George London (Bass Baritone)
Gabor Carelli (Tenor) | Giorgio Tozzi (Bass) | Roberta Peters (Soprano)
Lisa Della Casa (Soprano) | Rosalind Elias (Mezzo Soprano) | Sandra Warfield (Voice)
Fernando Corena (Bass)
Conductor: Erich Leinsdorf
Orchestra/Ensemble: Vienna State Opera Chorus, Vienna Philharmonic Orchestra

ТреклистDisc 1

01 Ouvertura
02 Cinque… dieci... venti... trenta
03 Se a caso madama
04 Bravo, signor padrone!... Se vuol ballare
05 La vendetta
06 Via, resti servita
07 Non so più cosa son
08 Cosa sento! Tosto andate
09 Non più andrai
10 Porgi amor
11 Voi che sapete
12 Venite, inginocchiatevi
13 Che novità!.
14 Susanna, or via, sortite
15 Aprite, presto aprite

Disc 2

01 Tutto è come il lasciai
02 Esci ormai, garzon malnato
03 Signori, di fuori
04 Voi signor, che giusto siete
05 Che imbarazzo è mai questo!
06 Crudel! perché finora
07 "Hai già vinta la causa"!
08 Riconosci in questo amplesso
09 E Susanna non vien!... Dove sono i bei momenti
10 Cosa mi narri?... "Canzonetta sull'aria"
11 Ecco la marcia

Disc 3

01 L'ho perduta, me meschina!
02 Il carpo e la capretta
03 In quegli anni, in cui val poco
04 Tutto è diposto... Aprite un po' quegl'occhi
05 Giunse alfin il momento... Deh vieni, non tardar
06 Pian pianin le andrò più presso
07 Gente, gente! all'armi, all'armi!

Отчёт XLDDisc 1

X Lossless Decoder version 20130602 (143.2)
XLD extraction logfile from 2013-06-10 21:09:02 +0200
Various Artists / Mozart - Le Nozze di Figaro
Used drive : MATSHITA DVD-R UJ-898 (revision HC10)
Media type : Pressed CD
Ripper mode : XLD Secure Ripper
Disable audio cache : OK for the drive with a cache less than 1375KiB
Make use of C2 pointers : NO
Read offset correction : 102
Max retry count : 100
Gap status : Analyzed, Appended (except HTOA)
TOC of the extracted CD
Track | Start | Length | Start sector | End sector
---------------------------------------------------------
1 | 00:00:33 | 03:55:67 | 33 | 17724
2 | 03:56:25 | 03:13:20 | 17725 | 32219
3 | 07:09:45 | 03:48:40 | 32220 | 49359
4 | 10:58:10 | 04:18:38 | 49360 | 68747
5 | 15:16:48 | 03:45:65 | 68748 | 85687
6 | 19:02:38 | 03:54:62 | 85688 | 103299
7 | 22:57:25 | 05:41:40 | 103300 | 128914
8 | 28:38:65 | 09:45:13 | 128915 | 172802
9 | 38:24:03 | 03:58:30 | 172803 | 190682
10 | 42:22:33 | 08:08:52 | 190683 | 227334
11 | 50:31:10 | 03:52:28 | 227335 | 244762
12 | 54:23:38 | 05:07:70 | 244763 | 267857
13 | 59:31:33 | 01:18:07 | 267858 | 273714
14 | 60:49:40 | 03:58:53 | 273715 | 291617
15 | 64:48:18 | 01:32:15 | 291618 | 298532
AccurateRip Summary (DiscID: 00256f31-01afed2b-c50f8c0f)
Track 01 : OK (v1, confidence 1/1)
Track 02 : OK (v1, confidence 1/1)
Track 03 : OK (v1, confidence 1/1)
Track 04 : OK (v1, confidence 1/1)
Track 05 : OK (v1, confidence 1/1)
Track 06 : OK (v1, confidence 1/1)
Track 07 : OK (v1, confidence 1/1)
Track 08 : OK (v1, confidence 1/1)
Track 09 : OK (v1, confidence 1/1)
Track 10 : OK (v1, confidence 1/1)
Track 11 : OK (v1, confidence 1/1)
Track 12 : OK (v1, confidence 1/1)
Track 13 : OK (v1, confidence 1/1)
Track 14 : OK (v1, confidence 1/1)
Track 15 : OK (v1, confidence 1/1)
->All tracks accurately ripped.
All Tracks
Album gain : -1.84 dB
Peak : 0.923584
Statistics
Read error : 0
Jitter error (maybe fixed) : 0
Retry sector count : 0
Damaged sector count : 0
Track 01
Filename : /Users/Home/XLD/Various Artists - Mozart - Le Nozze di Figaro (1960) [FLAC]/01 Ouvertura.flac
Pre-gap length : 00:02:33
Track gain : -2.33 dB
Peak : 0.867676
CRC32 hash (test run) : F6C353F8
CRC32 hash : F6C353F8
CRC32 hash (skip zero) : BCAAC619
AccurateRip v1 signature : 28190F09
AccurateRip v2 signature : 56E8495D
->Accurately ripped (v1, confidence 1/1)
Statistics
Read error : 0
Jitter error (maybe fixed) : 0
Retry sector count : 0
Damaged sector count : 0
Track 02
Filename : /Users/Home/XLD/Various Artists - Mozart - Le Nozze di Figaro (1960) [FLAC]/02 Cinque… dieci... venti... trenta.flac
Track gain : 0.37 dB
Peak : 0.831940
CRC32 hash (test run) : 43B8D5AB
CRC32 hash : 43B8D5AB
CRC32 hash (skip zero) : E800EDA8
AccurateRip v1 signature : 5FFC4E58
AccurateRip v2 signature : 47FF7D88
->Accurately ripped (v1, confidence 1/1)
Statistics
Read error : 0
Jitter error (maybe fixed) : 0
Retry sector count : 0
Damaged sector count : 0
Track 03
Filename : /Users/Home/XLD/Various Artists - Mozart - Le Nozze di Figaro (1960) [FLAC]/03 Se a caso madama.flac
Track gain : -0.52 dB
Peak : 0.901825
CRC32 hash (test run) : B67D5EC1
CRC32 hash : B67D5EC1
CRC32 hash (skip zero) : 75DD6965
AccurateRip v1 signature : 881F0E7F
AccurateRip v2 signature : 0AE1E86F
->Accurately ripped (v1, confidence 1/1)
Statistics
Read error : 0
Jitter error (maybe fixed) : 0
Retry sector count : 0
Damaged sector count : 0
Track 04
Filename : /Users/Home/XLD/Various Artists - Mozart - Le Nozze di Figaro (1960) [FLAC]/04 Bravo, signor padrone!... Se vuol ballare.flac
Track gain : -2.41 dB
Peak : 0.876556
CRC32 hash (test run) : AD382922
CRC32 hash : AD382922
CRC32 hash (skip zero) : 01CBB9D9
AccurateRip v1 signature : BA4E61BF
AccurateRip v2 signature : 227826FD
->Accurately ripped (v1, confidence 1/1)
Statistics
Read error : 0
Jitter error (maybe fixed) : 0
Retry sector count : 0
Damaged sector count : 0
Track 05
Filename : /Users/Home/XLD/Various Artists - Mozart - Le Nozze di Figaro (1960) [FLAC]/05 La vendetta.flac
Track gain : -3.75 dB
Peak : 0.907898
CRC32 hash (test run) : 44D4BDE9
CRC32 hash : 44D4BDE9
CRC32 hash (skip zero) : A4CB9ADE
AccurateRip v1 signature : 538601A7
AccurateRip v2 signature : D08D6A23
->Accurately ripped (v1, confidence 1/1)
Statistics
Read error : 0
Jitter error (maybe fixed) : 0
Retry sector count : 0
Damaged sector count : 0
Track 06
Filename : /Users/Home/XLD/Various Artists - Mozart - Le Nozze di Figaro (1960) [FLAC]/06 Via, resti servita.flac
Track gain : -2.25 dB
Peak : 0.894196
CRC32 hash (test run) : 5F39DC34
CRC32 hash : 5F39DC34
CRC32 hash (skip zero) : 24756238
AccurateRip v1 signature : A1E10B14
AccurateRip v2 signature : 4DA76FE1
->Accurately ripped (v1, confidence 1/1)
Statistics
Read error : 0
Jitter error (maybe fixed) : 0
Retry sector count : 0
Damaged sector count : 0
Track 07
Filename : /Users/Home/XLD/Various Artists - Mozart - Le Nozze di Figaro (1960) [FLAC]/07 Non so più cosa son.flac
Track gain : -2.00 dB
Peak : 0.923584
CRC32 hash (test run) : 8082A38F
CRC32 hash : 8082A38F
CRC32 hash (skip zero) : F326B539
AccurateRip v1 signature : 7AC91C13
AccurateRip v2 signature : 5A6CD2C0
->Accurately ripped (v1, confidence 1/1)
Statistics
Read error : 0
Jitter error (maybe fixed) : 0
Retry sector count : 0
Damaged sector count : 0
Track 08
Filename : /Users/Home/XLD/Various Artists - Mozart - Le Nozze di Figaro (1960) [FLAC]/08 Cosa sento! Tosto andate.flac
Track gain : -2.35 dB
Peak : 0.849823
CRC32 hash (test run) : C44AB94D
CRC32 hash : C44AB94D
CRC32 hash (skip zero) : 2E892E1A
AccurateRip v1 signature : 922C78FA
AccurateRip v2 signature : D3D5599C
->Accurately ripped (v1, confidence 1/1)
Statistics
Read error : 0
Jitter error (maybe fixed) : 0
Retry sector count : 0
Damaged sector count : 0
Track 09
Filename : /Users/Home/XLD/Various Artists - Mozart - Le Nozze di Figaro (1960) [FLAC]/09 Non più andrai.flac
Track gain : -3.58 dB
Peak : 0.859039
CRC32 hash (test run) : 8F2B2A19
CRC32 hash : 8F2B2A19
CRC32 hash (skip zero) : 979FF9A6
AccurateRip v1 signature : D5516C43
AccurateRip v2 signature : 61D05B6C
->Accurately ripped (v1, confidence 1/1)
Statistics
Read error : 0
Jitter error (maybe fixed) : 0
Retry sector count : 0
Damaged sector count : 0
Track 10
Filename : /Users/Home/XLD/Various Artists - Mozart - Le Nozze di Figaro (1960) [FLAC]/10 Porgi amor.flac
Pre-gap length : 00:10:00
Track gain : 1.26 dB
Peak : 0.809326
CRC32 hash (test run) : 73E75093
CRC32 hash : 73E75093
CRC32 hash (skip zero) : 6CB84F60
AccurateRip v1 signature : D3718787
AccurateRip v2 signature : A2391A1D
->Accurately ripped (v1, confidence 1/1)
Statistics
Read error : 0
Jitter error (maybe fixed) : 0
Retry sector count : 0
Damaged sector count : 0
Track 11
Filename : /Users/Home/XLD/Various Artists - Mozart - Le Nozze di Figaro (1960) [FLAC]/11 Voi che sapete.flac
Track gain : 1.49 dB
Peak : 0.529114
CRC32 hash (test run) : 6AC11862
CRC32 hash : 6AC11862
CRC32 hash (skip zero) : 91F79B82
AccurateRip v1 signature : F51EBE86
AccurateRip v2 signature : BD78C57B
->Accurately ripped (v1, confidence 1/1)
Statistics
Read error : 0
Jitter error (maybe fixed) : 0
Retry sector count : 0
Damaged sector count : 0
Track 12
Filename : /Users/Home/XLD/Various Artists - Mozart - Le Nozze di Figaro (1960) [FLAC]/12 Venite, inginocchiatevi.flac
Track gain : 2.05 dB
Peak : 0.695557
CRC32 hash (test run) : 2B433175
CRC32 hash : 2B433175
CRC32 hash (skip zero) : A901A814
AccurateRip v1 signature : 43C317A6
AccurateRip v2 signature : 6D47D35E
->Accurately ripped (v1, confidence 1/1)
Statistics
Read error : 0
Jitter error (maybe fixed) : 0
Retry sector count : 0
Damaged sector count : 0
Track 13
Filename : /Users/Home/XLD/Various Artists - Mozart - Le Nozze di Figaro (1960) [FLAC]/13 Che novità!.flac
Track gain : 5.76 dB
Peak : 0.489227
CRC32 hash (test run) : 1DB93FB0
CRC32 hash : 1DB93FB0
CRC32 hash (skip zero) : 25AB7D59
AccurateRip v1 signature : 4AD8F65F
AccurateRip v2 signature : 15308936
->Accurately ripped (v1, confidence 1/1)
Statistics
Read error : 0
Jitter error (maybe fixed) : 0
Retry sector count : 0
Damaged sector count : 0
Track 14
Filename : /Users/Home/XLD/Various Artists - Mozart - Le Nozze di Figaro (1960) [FLAC]/14 Susanna, or via, sortite.flac
Track gain : -3.43 dB
Peak : 0.832977
CRC32 hash (test run) : 842C3D51
CRC32 hash : 842C3D51
CRC32 hash (skip zero) : AAE1ADA2
AccurateRip v1 signature : 90ACF92C
AccurateRip v2 signature : 2E561387
->Accurately ripped (v1, confidence 1/1)
Statistics
Read error : 0
Jitter error (maybe fixed) : 0
Retry sector count : 0
Damaged sector count : 0
Track 15
Filename : /Users/Home/XLD/Various Artists - Mozart - Le Nozze di Figaro (1960) [FLAC]/15 Aprite, presto aprite.flac
Track gain : 1.10 dB
Peak : 0.880981
CRC32 hash (test run) : 560117BF
CRC32 hash : 560117BF
CRC32 hash (skip zero) : 8B88335C
AccurateRip v1 signature : F76D3453
AccurateRip v2 signature : 9379196C
->Accurately ripped (v1, confidence 1/1)
Statistics
Read error : 0
Jitter error (maybe fixed) : 0
Retry sector count : 0
Damaged sector count : 0
No errors occurred
End of status report

Disc 2

X Lossless Decoder version 20130602 (143.2)
XLD extraction logfile from 2013-06-10 20:31:14 +0200
Various Artists / Mozart - Le Nozze di Figaro
Used drive : MATSHITA DVD-R UJ-898 (revision HC10)
Media type : Pressed CD
Ripper mode : XLD Secure Ripper
Disable audio cache : OK for the drive with a cache less than 1375KiB
Make use of C2 pointers : NO
Read offset correction : 102
Max retry count : 100
Gap status : Analyzed, Appended (except HTOA)
TOC of the extracted CD
Track | Start | Length | Start sector | End sector
---------------------------------------------------------
1 | 00:00:33 | 01:18:12 | 33 | 5894
2 | 01:18:45 | 07:43:30 | 5895 | 40649
3 | 09:02:00 | 08:29:05 | 40650 | 78829
4 | 17:31:05 | 03:48:28 | 78830 | 95957
5 | 21:19:33 | 02:07:25 | 95958 | 105507
6 | 23:26:58 | 03:09:42 | 105508 | 119724
7 | 26:36:25 | 06:08:65 | 119725 | 147389
8 | 32:45:15 | 06:31:68 | 147390 | 176782
9 | 39:17:08 | 06:45:50 | 176783 | 207207
10 | 46:02:58 | 07:08:37 | 207208 | 239344
11 | 53:11:20 | 06:42:13 | 239345 | 269507
AccurateRip Summary (DiscID: 0016aff1-00c80798-9d0e090b)
Track 01 : OK (v1, confidence 1/1)
Track 02 : OK (v1, confidence 1/1)
Track 03 : NG (total 1 submission)
Track 04 : OK (v1, confidence 1/1)
Track 05 : NG (total 1 submission)
Track 06 : OK (v1, confidence 1/1)
Track 07 : NG (total 1 submission)
Track 08 : OK (v1, confidence 1/1)
Track 09 : OK (v1, confidence 1/1)
Track 10 : OK (v1, confidence 1/1)
Track 11 : OK (v1, confidence 1/1)
->8 tracks accurately ripped, 3 tracks not
All Tracks
Album gain : -3.62 dB
Peak : 1.000000
Statistics
Read error : 0
Jitter error (maybe fixed) : 0
Retry sector count : 0
Damaged sector count : 0
Track 01
Filename : /Users/Home/XLD/Various Artists - Mozart - Le Nozze di Figaro (1960) [FLAC]/01 Tutto è come il lasciai.flac
Pre-gap length : 00:02:33
Track gain : 3.02 dB
Peak : 0.579163
CRC32 hash (test run) : 0324988D
CRC32 hash : 0324988D
CRC32 hash (skip zero) : 4D45D4D4
AccurateRip v1 signature : D02F7FC2
AccurateRip v2 signature : E52FE0A7
->Accurately ripped (v1, confidence 1/1)
Statistics
Read error : 0
Jitter error (maybe fixed) : 0
Retry sector count : 0
Damaged sector count : 0
Track 02
Filename : /Users/Home/XLD/Various Artists - Mozart - Le Nozze di Figaro (1960) [FLAC]/02 Esci ormai, garzon malnato.flac
Track gain : -4.86 dB
Peak : 0.954987
CRC32 hash (test run) : E4ADC74A
CRC32 hash : E4ADC74A
CRC32 hash (skip zero) : 7B77B2E2
AccurateRip v1 signature : BDFA5379
AccurateRip v2 signature : 8E338DC3
->Accurately ripped (v1, confidence 1/1)
Statistics
Read error : 0
Jitter error (maybe fixed) : 0
Retry sector count : 0
Damaged sector count : 0
Track 03
Filename : /Users/Home/XLD/Various Artists - Mozart - Le Nozze di Figaro (1960) [FLAC]/03 Signori, di fuori.flac
Track gain : -3.52 dB
Peak : 0.908875
CRC32 hash (test run) : 4E637A73
CRC32 hash : 4E637A73
CRC32 hash (skip zero) : E2F314E5
AccurateRip v1 signature : 7748DA63
AccurateRip v2 signature : 3AE6CA24
->Rip may not be accurate (total 1 submission).
Statistics
Read error : 0
Jitter error (maybe fixed) : 0
Retry sector count : 0
Damaged sector count : 0
Track 04
Filename : /Users/Home/XLD/Various Artists - Mozart - Le Nozze di Figaro (1960) [FLAC]/04 Voi signor, che giusto siete.flac
Track gain : -7.01 dB
Peak : 0.993103
CRC32 hash (test run) : 9A1524B8
CRC32 hash : 9A1524B8
CRC32 hash (skip zero) : E6570822
AccurateRip v1 signature : 6081338E
AccurateRip v2 signature : 5A2404B8
->Accurately ripped (v1, confidence 1/1)
Statistics
Read error : 0
Jitter error (maybe fixed) : 0
Retry sector count : 0
Damaged sector count : 0
Track 05
Filename : /Users/Home/XLD/Various Artists - Mozart - Le Nozze di Figaro (1960) [FLAC]/05 Che imbarazzo è mai questo!.flac
Pre-gap length : 00:10:00
Track gain : 5.70 dB
Peak : 0.381287
CRC32 hash (test run) : 2AF6AFB1
CRC32 hash : 2AF6AFB1
CRC32 hash (skip zero) : 3C8B298D
AccurateRip v1 signature : 8FAFF45A
AccurateRip v2 signature : 2C06EB00
->Rip may not be accurate (total 1 submission).
Statistics
Read error : 0
Jitter error (maybe fixed) : 0
Retry sector count : 0
Damaged sector count : 0
Track 06
Filename : /Users/Home/XLD/Various Artists - Mozart - Le Nozze di Figaro (1960) [FLAC]/06 Crudel! perché finora.flac
Track gain : -2.73 dB
Peak : 0.830811
CRC32 hash (test run) : C0EAD244
CRC32 hash : C0EAD244
CRC32 hash (skip zero) : D53853C5
AccurateRip v1 signature : 08725855
AccurateRip v2 signature : A2B7F114
->Accurately ripped (v1, confidence 1/1)
Statistics
Read error : 0
Jitter error (maybe fixed) : 0
Retry sector count : 0
Damaged sector count : 0
Track 07
Filename : /Users/Home/XLD/Various Artists - Mozart - Le Nozze di Figaro (1960) [FLAC]/07 "Hai già vinta la causa"!.flac
Track gain : -6.32 dB
Peak : 1.000000
CRC32 hash (test run) : 39C8B23A
CRC32 hash : 39C8B23A
CRC32 hash (skip zero) : C2D14784
AccurateRip v1 signature : 2A9B4613
AccurateRip v2 signature : DC1DB715
->Rip may not be accurate (total 1 submission).
Statistics
Read error : 0
Jitter error (maybe fixed) : 0
Retry sector count : 0
Damaged sector count : 0
Track 08
Filename : /Users/Home/XLD/Various Artists - Mozart - Le Nozze di Figaro (1960) [FLAC]/08 Riconosci in questo amplesso.flac
Track gain : -2.65 dB
Peak : 0.947235
CRC32 hash (test run) : CF392524
CRC32 hash : CF392524
CRC32 hash (skip zero) : F0D8103C
AccurateRip v1 signature : 0F68119C
AccurateRip v2 signature : 814F1E6E
->Accurately ripped (v1, confidence 1/1)
Statistics
Read error : 0
Jitter error (maybe fixed) : 0
Retry sector count : 0
Damaged sector count : 0
Track 09
Filename : /Users/Home/XLD/Various Artists - Mozart - Le Nozze di Figaro (1960) [FLAC]/09 E Susanna non vien!... Dove sono i bei momenti.flac
Track gain : -1.37 dB
Peak : 0.733551
CRC32 hash (test run) : FF7A709B
CRC32 hash : FF7A709B
CRC32 hash (skip zero) : 5461F1F8
AccurateRip v1 signature : D34FF8C4
AccurateRip v2 signature : B1427DE5
->Accurately ripped (v1, confidence 1/1)
Statistics
Read error : 0
Jitter error (maybe fixed) : 0
Retry sector count : 0
Damaged sector count : 0
Track 10
Filename : /Users/Home/XLD/Various Artists - Mozart - Le Nozze di Figaro (1960) [FLAC]/10 Cosa mi narri?... "Canzonetta sull'aria".flac
Track gain : 2.99 dB
Peak : 0.637695
CRC32 hash (test run) : A0D09214
CRC32 hash : A0D09214
CRC32 hash (skip zero) : 492C8302
AccurateRip v1 signature : C0074CE4
AccurateRip v2 signature : 42670552
->Accurately ripped (v1, confidence 1/1)
Statistics
Read error : 0
Jitter error (maybe fixed) : 0
Retry sector count : 0
Damaged sector count : 0
Track 11
Filename : /Users/Home/XLD/Various Artists - Mozart - Le Nozze di Figaro (1960) [FLAC]/11 Ecco la marcia.flac
Track gain : -3.58 dB
Peak : 0.999969
CRC32 hash (test run) : 40A72C29
CRC32 hash : 40A72C29
CRC32 hash (skip zero) : 436B5CBB
AccurateRip v1 signature : 294A67B5
AccurateRip v2 signature : B1457F80
->Accurately ripped (v1, confidence 1/1)
Statistics
Read error : 0
Jitter error (maybe fixed) : 0
Retry sector count : 0
Damaged sector count : 0
No errors occurred
End of status report

Disc 3

X Lossless Decoder version 20130602 (143.2)
XLD extraction logfile from 2013-06-10 21:49:19 +0200
Various Artists / Mozart - Le Nozze di Figaro
Used drive : MATSHITA DVD-R UJ-898 (revision HC10)
Media type : Pressed CD
Ripper mode : XLD Secure Ripper
Disable audio cache : OK for the drive with a cache less than 1375KiB
Make use of C2 pointers : NO
Read offset correction : 102
Max retry count : 100
Gap status : Analyzed, Appended (except HTOA)
TOC of the extracted CD
Track | Start | Length | Start sector | End sector
---------------------------------------------------------
1 | 00:00:33 | 04:20:22 | 33 | 19554
2 | 04:20:55 | 05:22:15 | 19555 | 43719
3 | 09:42:70 | 04:18:50 | 43720 | 63119
4 | 14:01:45 | 04:55:50 | 63120 | 85294
5 | 18:57:20 | 05:29:33 | 85295 | 110002
6 | 24:26:53 | 10:18:50 | 110003 | 156402
7 | 34:45:28 | 04:54:05 | 156403 | 178457
AccurateRip Summary (DiscID: 000a04cb-003d8511-5e094b07)
Track 01 : OK (v1, confidence 1/1)
Track 02 : OK (v1, confidence 1/1)
Track 03 : NG (total 1 submission)
Track 04 : OK (v1, confidence 1/1)
Track 05 : OK (v1, confidence 1/1)
Track 06 : OK (v1, confidence 1/1)
Track 07 : OK (v1, confidence 1/1)
->6 tracks accurately ripped, 1 track not
All Tracks
Album gain : -2.62 dB
Peak : 0.999969
Statistics
Read error : 0
Jitter error (maybe fixed) : 0
Retry sector count : 0
Damaged sector count : 0
Track 01
Filename : /Users/Home/XLD/Various Artists - Mozart - Le Nozze di Figaro (1960) [FLAC]/01 L'ho perduta, me meschina!.flac
Pre-gap length : 00:02:33
Track gain : 2.04 dB
Peak : 0.594757
CRC32 hash (test run) : 4C61702A
CRC32 hash : 4C61702A
CRC32 hash (skip zero) : F2D40E67
AccurateRip v1 signature : 32348535
AccurateRip v2 signature : DC2BECB1
->Accurately ripped (v1, confidence 1/1)
Statistics
Read error : 0
Jitter error (maybe fixed) : 0
Retry sector count : 0
Damaged sector count : 0
Track 02
Filename : /Users/Home/XLD/Various Artists - Mozart - Le Nozze di Figaro (1960) [FLAC]/02 Il carpo e la capretta.flac
Track gain : -0.89 dB
Peak : 0.779053
CRC32 hash (test run) : 2B605305
CRC32 hash : 2B605305
CRC32 hash (skip zero) : 9CD8BB8C
AccurateRip v1 signature : 5BE5065B
AccurateRip v2 signature : 9F440932
->Accurately ripped (v1, confidence 1/1)
Statistics
Read error : 0
Jitter error (maybe fixed) : 0
Retry sector count : 0
Damaged sector count : 0
Track 03
Filename : /Users/Home/XLD/Various Artists - Mozart - Le Nozze di Figaro (1960) [FLAC]/03 In quegli anni, in cui val poco.flac
Track gain : -2.41 dB
Peak : 0.909393
CRC32 hash (test run) : E7582CA5
CRC32 hash : E7582CA5
CRC32 hash (skip zero) : C441588A
AccurateRip v1 signature : 4CB927CC
AccurateRip v2 signature : FB644B9E
->Rip may not be accurate (total 1 submission).
Statistics
Read error : 0
Jitter error (maybe fixed) : 0
Retry sector count : 0
Damaged sector count : 0
Track 04
Filename : /Users/Home/XLD/Various Artists - Mozart - Le Nozze di Figaro (1960) [FLAC]/04 Tutto è diposto... Aprite un po' quegl'occhi.flac
Track gain : -2.85 dB
Peak : 0.906555
CRC32 hash (test run) : 7E9C7FE8
CRC32 hash : 7E9C7FE8
CRC32 hash (skip zero) : 7521D2C6
AccurateRip v1 signature : DBEFE28E
AccurateRip v2 signature : 075046C6
->Accurately ripped (v1, confidence 1/1)
Statistics
Read error : 0
Jitter error (maybe fixed) : 0
Retry sector count : 0
Damaged sector count : 0
Track 05
Filename : /Users/Home/XLD/Various Artists - Mozart - Le Nozze di Figaro (1960) [FLAC]/05 Giunse alfin il momento... Deh vieni, non tardar.flac
Track gain : 6.49 dB
Peak : 0.460968
CRC32 hash (test run) : 8F5EC85F
CRC32 hash : 8F5EC85F
CRC32 hash (skip zero) : A236A1B9
AccurateRip v1 signature : 2395434F
AccurateRip v2 signature : CB62F620
->Accurately ripped (v1, confidence 1/1)
Statistics
Read error : 0
Jitter error (maybe fixed) : 0
Retry sector count : 0
Damaged sector count : 0
Track 06
Filename : /Users/Home/XLD/Various Artists - Mozart - Le Nozze di Figaro (1960) [FLAC]/06 Pian pianin le andrò più presso.flac
Track gain : -3.15 dB
Peak : 0.999969
CRC32 hash (test run) : 208ECEF7
CRC32 hash : 208ECEF7
CRC32 hash (skip zero) : B2D38098
AccurateRip v1 signature : 86866D8C
AccurateRip v2 signature : 7C2546B8
->Accurately ripped (v1, confidence 1/1)
Statistics
Read error : 0
Jitter error (maybe fixed) : 0
Retry sector count : 0
Damaged sector count : 0
Track 07
Filename : /Users/Home/XLD/Various Artists - Mozart - Le Nozze di Figaro (1960) [FLAC]/07 Gente, gente! all'armi, all'armi!.flac
Track gain : -6.52 dB
Peak : 0.979462
CRC32 hash (test run) : D2216FB4
CRC32 hash : D2216FB4
CRC32 hash (skip zero) : B81B6B66
AccurateRip v1 signature : FE900349
AccurateRip v2 signature : 41FD3838
->Accurately ripped (v1, confidence 1/1)
Statistics
Read error : 0
Jitter error (maybe fixed) : 0
Retry sector count : 0
Damaged sector count : 0
No errors occurred
End of status report

Содержание индексной карты (.CUE)Disc 1

TITLE "Mozart - Le Nozze di Figaro"
PERFORMER "Various Artists"
CATALOG 0028944460322
REM GENRE "Classical"
REM DATE "1960"
REM DISCNUMBER 1
REM TOTALDISCS 3
REM DISCID C50F8C0F
REM REPLAYGAIN_ALBUM_GAIN -1.84 dB
REM REPLAYGAIN_ALBUM_PEAK 0.923584
FILE "01 Ouvertura.flac" WAVE
TRACK 01 AUDIO
TITLE "Ouvertura"
PERFORMER "Erich Leinsdorf, Richard Rossmayer, Wiener Philharmoniker & Wiener Staatsopernchor"
ISRC GBF075841801
REM REPLAYGAIN_TRACK_GAIN -2.33 dB
REM REPLAYGAIN_TRACK_PEAK 0.867676
PREGAP 00:00:33
INDEX 01 00:00:00
FILE "02 Cinque… dieci... venti... trenta.flac" WAVE
TRACK 02 AUDIO
TITLE "Cinque… dieci... venti... trenta"
PERFORMER "Erich Leinsdorf, Richard Rossmayer, Wiener Philharmoniker, Wiener Staatsopernchor & Giorgio Tozzi"
ISRC GBF075841802
REM REPLAYGAIN_TRACK_GAIN 0.37 dB
REM REPLAYGAIN_TRACK_PEAK 0.831940
INDEX 01 00:00:00
FILE "03 Se a caso madama.flac" WAVE
TRACK 03 AUDIO
TITLE "Se a caso madama"
PERFORMER "Erich Leinsdorf, Richard Rossmayer, Wiener Philharmoniker, Wiener Staatsopernchor & Giorgio Tozzi"
ISRC GBF075841803
REM REPLAYGAIN_TRACK_GAIN -0.52 dB
REM REPLAYGAIN_TRACK_PEAK 0.901825
INDEX 01 00:00:00
FILE "04 Bravo, signor padrone!... Se vuol ballare.flac" WAVE
TRACK 04 AUDIO
TITLE "Bravo, signor padrone!... Se vuol ballare"
PERFORMER "Erich Leinsdorf, Richard Rossmayer, Wiener Philharmoniker, Wiener Staatsopernchor & Giorgio Tozzi"
ISRC GBF075841804
REM REPLAYGAIN_TRACK_GAIN -2.41 dB
REM REPLAYGAIN_TRACK_PEAK 0.876556
INDEX 01 00:00:00
FILE "05 La vendetta.flac" WAVE
TRACK 05 AUDIO
TITLE "La vendetta"
PERFORMER "Erich Leinsdorf, Richard Rossmayer, Wiener Philharmoniker, Wiener Staatsopernchor & Fernando Corena"
ISRC GBF075841805
REM REPLAYGAIN_TRACK_GAIN -3.75 dB
REM REPLAYGAIN_TRACK_PEAK 0.907898
INDEX 01 00:00:00
FILE "06 Via, resti servita.flac" WAVE
TRACK 06 AUDIO
TITLE "Via, resti servita"
PERFORMER "Erich Leinsdorf, Richard Rossmayer, Wiener Philharmoniker, Wiener Staatsopernchor & Sandra Warfield"
ISRC GBF075841806
REM REPLAYGAIN_TRACK_GAIN -2.25 dB
REM REPLAYGAIN_TRACK_PEAK 0.894196
INDEX 01 00:00:00
FILE "07 Non so più cosa son.flac" WAVE
TRACK 07 AUDIO
TITLE "Non so più cosa son"
PERFORMER "Erich Leinsdorf, Richard Rossmayer, Wiener Philharmoniker, Wiener Staatsopernchor & Rosalind Elias"
ISRC GBF075841807
REM REPLAYGAIN_TRACK_GAIN -2.00 dB
REM REPLAYGAIN_TRACK_PEAK 0.923584
INDEX 01 00:00:00
FILE "08 Cosa sento! Tosto andate.flac" WAVE
TRACK 08 AUDIO
TITLE "Cosa sento! Tosto andate"
PERFORMER "Erich Leinsdorf, Richard Rossmayer, Wiener Philharmoniker, Wiener Staatsopernchor & George London"
ISRC GBF075841808
REM REPLAYGAIN_TRACK_GAIN -2.35 dB
REM REPLAYGAIN_TRACK_PEAK 0.849823
INDEX 01 00:00:00
FILE "09 Non più andrai.flac" WAVE
TRACK 09 AUDIO
TITLE "Non più andrai"
PERFORMER "Erich Leinsdorf, Richard Rossmayer, Wiener Philharmoniker, Wiener Staatsopernchor & Giorgio Tozzi"
ISRC GBF075841809
REM REPLAYGAIN_TRACK_GAIN -3.58 dB
REM REPLAYGAIN_TRACK_PEAK 0.859039
INDEX 01 00:00:00
TRACK 10 AUDIO
TITLE "Porgi amor"
PERFORMER "Erich Leinsdorf, Richard Rossmayer, Wiener Philharmoniker, Wiener Staatsopernchor & Lisa della Casa"
ISRC GBF075841810
REM REPLAYGAIN_TRACK_GAIN 1.26 dB
REM REPLAYGAIN_TRACK_PEAK 0.809326
INDEX 00 03:48:30
FILE "10 Porgi amor.flac" WAVE
INDEX 01 00:00:00
FILE "11 Voi che sapete.flac" WAVE
TRACK 11 AUDIO
TITLE "Voi che sapete"
PERFORMER "Erich Leinsdorf, Richard Rossmayer, Wiener Philharmoniker, Wiener Staatsopernchor & Rosalind Elias"
ISRC GBF075841811
REM REPLAYGAIN_TRACK_GAIN 1.49 dB
REM REPLAYGAIN_TRACK_PEAK 0.529114
INDEX 01 00:00:00
FILE "12 Venite, inginocchiatevi.flac" WAVE
TRACK 12 AUDIO
TITLE "Venite, inginocchiatevi"
PERFORMER "Erich Leinsdorf, Richard Rossmayer, Wiener Philharmoniker, Wiener Staatsopernchor & Roberta Peters"
ISRC GBF075841812
REM REPLAYGAIN_TRACK_GAIN 2.05 dB
REM REPLAYGAIN_TRACK_PEAK 0.695557
INDEX 01 00:00:00
FILE "13 Che novità!.flac" WAVE
TRACK 13 AUDIO
TITLE "Che novità!"
PERFORMER "Erich Leinsdorf, Richard Rossmayer, Wiener Philharmoniker, Wiener Staatsopernchor & George London"
ISRC GBF075841813
REM REPLAYGAIN_TRACK_GAIN 5.76 dB
REM REPLAYGAIN_TRACK_PEAK 0.489227
INDEX 01 00:00:00
FILE "14 Susanna, or via, sortite.flac" WAVE
TRACK 14 AUDIO
TITLE "Susanna, or via, sortite"
PERFORMER "Erich Leinsdorf, Richard Rossmayer, Wiener Philharmoniker, Wiener Staatsopernchor & George London"
ISRC GBF075841814
REM REPLAYGAIN_TRACK_GAIN -3.43 dB
REM REPLAYGAIN_TRACK_PEAK 0.832977
INDEX 01 00:00:00
FILE "15 Aprite, presto aprite.flac" WAVE
TRACK 15 AUDIO
TITLE "Aprite, presto aprite"
PERFORMER "Erich Leinsdorf, Richard Rossmayer, Wiener Philharmoniker, Wiener Staatsopernchor & Roberta Peters"
ISRC GBF075841815
REM REPLAYGAIN_TRACK_GAIN 1.10 dB
REM REPLAYGAIN_TRACK_PEAK 0.880981
INDEX 01 00:00:00

Disc 2

TITLE "Mozart - Le Nozze di Figaro"
PERFORMER "Various Artists"
CATALOG 0028944460421
REM GENRE "Classical"
REM DATE "1960"
REM DISCNUMBER 2
REM TOTALDISCS 3
REM DISCID 9D0E090B
REM REPLAYGAIN_ALBUM_GAIN -3.62 dB
REM REPLAYGAIN_ALBUM_PEAK 1.000000
FILE "01 Tutto è come il lasciai.flac" WAVE
TRACK 01 AUDIO
TITLE "Tutto è come il lasciai"
PERFORMER "Erich Leinsdorf, Richard Rossmayer, Wiener Philharmoniker, Wiener Staatsopernchor & George London"
ISRC GBF075841816
REM REPLAYGAIN_TRACK_GAIN 3.02 dB
REM REPLAYGAIN_TRACK_PEAK 0.579163
PREGAP 00:00:33
INDEX 01 00:00:00
FILE "02 Esci ormai, garzon malnato.flac" WAVE
TRACK 02 AUDIO
TITLE "Esci ormai, garzon malnato"
PERFORMER "Erich Leinsdorf, Richard Rossmayer, Wiener Philharmoniker, Wiener Staatsopernchor & George London"
ISRC GBF075841817
REM REPLAYGAIN_TRACK_GAIN -4.86 dB
REM REPLAYGAIN_TRACK_PEAK 0.954987
INDEX 01 00:00:00
FILE "03 Signori, di fuori.flac" WAVE
TRACK 03 AUDIO
TITLE "Signori, di fuori"
PERFORMER "Erich Leinsdorf, Richard Rossmayer, Wiener Philharmoniker, Wiener Staatsopernchor & Giorgio Tozzi"
ISRC GBF075841818
REM REPLAYGAIN_TRACK_GAIN -3.52 dB
REM REPLAYGAIN_TRACK_PEAK 0.908875
INDEX 01 00:00:00
FILE "04 Voi signor, che giusto siete.flac" WAVE
TRACK 04 AUDIO
TITLE "Voi signor, che giusto siete"
PERFORMER "Erich Leinsdorf, Richard Rossmayer, Wiener Philharmoniker, Wiener Staatsopernchor, Sandra Warfield, Gabor Carelli & Fernando Corena"
ISRC GBF075841819
REM REPLAYGAIN_TRACK_GAIN -7.01 dB
REM REPLAYGAIN_TRACK_PEAK 0.993103
INDEX 01 00:00:00
TRACK 05 AUDIO
TITLE "Che imbarazzo è mai questo!"
PERFORMER "Erich Leinsdorf, Richard Rossmayer, Wiener Philharmoniker, Wiener Staatsopernchor & George London"
ISRC GBF075841820
REM REPLAYGAIN_TRACK_GAIN 5.70 dB
REM REPLAYGAIN_TRACK_PEAK 0.381287
INDEX 00 03:38:28
FILE "05 Che imbarazzo è mai questo!.flac" WAVE
INDEX 01 00:00:00
FILE "06 Crudel! perché finora.flac" WAVE
TRACK 06 AUDIO
TITLE "Crudel! perché finora"
PERFORMER "Erich Leinsdorf, Richard Rossmayer, Wiener Philharmoniker, Wiener Staatsopernchor & George London"
ISRC GBF075841821
REM REPLAYGAIN_TRACK_GAIN -2.73 dB
REM REPLAYGAIN_TRACK_PEAK 0.830811
INDEX 01 00:00:00
FILE "07 "Hai già vinta la causa"!.flac" WAVE
TRACK 07 AUDIO
TITLE ""Hai già vinta la causa"!"
PERFORMER "Erich Leinsdorf, Richard Rossmayer, Wiener Philharmoniker, Wiener Staatsopernchor & George London"
ISRC GBF075841822
REM REPLAYGAIN_TRACK_GAIN -6.32 dB
REM REPLAYGAIN_TRACK_PEAK 1.000000
INDEX 01 00:00:00
FILE "08 Riconosci in questo amplesso.flac" WAVE
TRACK 08 AUDIO
TITLE "Riconosci in questo amplesso"
PERFORMER "Erich Leinsdorf, Richard Rossmayer, Wiener Philharmoniker, Wiener Staatsopernchor & Sandra Warfield"
ISRC GBF075841823
REM REPLAYGAIN_TRACK_GAIN -2.65 dB
REM REPLAYGAIN_TRACK_PEAK 0.947235
INDEX 01 00:00:00
FILE "09 E Susanna non vien!... Dove sono i bei momenti.flac" WAVE
TRACK 09 AUDIO
TITLE "E Susanna non vien!... Dove sono i bei momenti"
PERFORMER "Erich Leinsdorf, Richard Rossmayer, Wiener Philharmoniker, Wiener Staatsopernchor & Lisa della Casa"
ISRC GBF075841824
REM REPLAYGAIN_TRACK_GAIN -1.37 dB
REM REPLAYGAIN_TRACK_PEAK 0.733551
INDEX 01 00:00:00
FILE "10 Cosa mi narri?... "Canzonetta sull'aria".flac" WAVE
TRACK 10 AUDIO
TITLE "Cosa mi narri?... "Canzonetta sull'aria""
PERFORMER "Erich Leinsdorf, Richard Rossmayer, Wiener Philharmoniker, Wiener Staatsopernchor & Lisa della Casa"
ISRC GBF075841825
REM REPLAYGAIN_TRACK_GAIN 2.99 dB
REM REPLAYGAIN_TRACK_PEAK 0.637695
INDEX 01 00:00:00
FILE "11 Ecco la marcia.flac" WAVE
TRACK 11 AUDIO
TITLE "Ecco la marcia"
PERFORMER "Erich Leinsdorf, Richard Rossmayer, Wiener Philharmoniker, Wiener Staatsopernchor & Giorgio Tozzi"
ISRC GBF075841826
REM REPLAYGAIN_TRACK_GAIN -3.58 dB
REM REPLAYGAIN_TRACK_PEAK 0.999969
INDEX 01 00:00:00

Disc 3

TITLE "Mozart - Le Nozze di Figaro"
PERFORMER "Various Artists"
CATALOG 0028944460520
REM GENRE "Classical"
REM DATE "1960"
REM DISCNUMBER 3
REM TOTALDISCS 3
REM DISCID 5E094B07
REM REPLAYGAIN_ALBUM_GAIN -2.62 dB
REM REPLAYGAIN_ALBUM_PEAK 0.999969
FILE "01 L'ho perduta, me meschina!.flac" WAVE
TRACK 01 AUDIO
TITLE "L'ho perduta, me meschina!"
PERFORMER "Erich Leinsdorf, Richard Rossmayer, Wiener Philharmoniker, Wiener Staatsopernchor & Annie Felbermeyer"
ISRC GBF075841827
REM REPLAYGAIN_TRACK_GAIN 2.04 dB
REM REPLAYGAIN_TRACK_PEAK 0.594757
PREGAP 00:00:33
INDEX 01 00:00:00
FILE "02 Il carpo e la capretta.flac" WAVE
TRACK 02 AUDIO
TITLE "Il carpo e la capretta"
PERFORMER "Erich Leinsdorf, Richard Rossmayer, Wiener Philharmoniker, Wiener Staatsopernchor & Sandra Warfield"
ISRC GBF075841828
REM REPLAYGAIN_TRACK_GAIN -0.89 dB
REM REPLAYGAIN_TRACK_PEAK 0.779053
INDEX 01 00:00:00
FILE "03 In quegli anni, in cui val poco.flac" WAVE
TRACK 03 AUDIO
TITLE "In quegli anni, in cui val poco"
PERFORMER "Erich Leinsdorf, Richard Rossmayer, Wiener Philharmoniker, Wiener Staatsopernchor & Gabor Carelli"
ISRC GBF075841829
REM REPLAYGAIN_TRACK_GAIN -2.41 dB
REM REPLAYGAIN_TRACK_PEAK 0.909393
INDEX 01 00:00:00
FILE "04 Tutto è diposto... Aprite un po' quegl'occhi.flac" WAVE
TRACK 04 AUDIO
TITLE "Tutto è diposto... Aprite un po' quegl'occhi"
PERFORMER "Erich Leinsdorf, Richard Rossmayer, Wiener Philharmoniker, Wiener Staatsopernchor & Giorgio Tozzi"
ISRC GBF075841830
REM REPLAYGAIN_TRACK_GAIN -2.85 dB
REM REPLAYGAIN_TRACK_PEAK 0.906555
INDEX 01 00:00:00
FILE "05 Giunse alfin il momento... Deh vieni, non tardar.flac" WAVE
TRACK 05 AUDIO
TITLE "Giunse alfin il momento... Deh vieni, non tardar"
PERFORMER "Erich Leinsdorf, Richard Rossmayer, Wiener Philharmoniker, Wiener Staatsopernchor & Roberta Peters"
ISRC GBF075841831
REM REPLAYGAIN_TRACK_GAIN 6.49 dB
REM REPLAYGAIN_TRACK_PEAK 0.460968
INDEX 01 00:00:00
FILE "06 Pian pianin le andrò più presso.flac" WAVE
TRACK 06 AUDIO
TITLE "Pian pianin le andrò più presso"
PERFORMER "Erich Leinsdorf, Richard Rossmayer, Wiener Philharmoniker, Wiener Staatsopernchor & Rosalind Elias"
ISRC GBF075841832
REM REPLAYGAIN_TRACK_GAIN -3.15 dB
REM REPLAYGAIN_TRACK_PEAK 0.999969
INDEX 01 00:00:00
FILE "07 Gente, gente! all'armi, all'armi!.flac" WAVE
TRACK 07 AUDIO
TITLE "Gente, gente! all'armi, all'armi!"
PERFORMER "Erich Leinsdorf, Richard Rossmayer, Wiener Philharmoniker, Wiener Staatsopernchor & George London"
ISRC GBF075841833
REM REPLAYGAIN_TRACK_GAIN -6.52 dB
REM REPLAYGAIN_TRACK_PEAK 0.979462
INDEX 01 00:00:00



Показать сообщения:    

Текущее время: 11-Дек 14:58

Часовой пояс: UTC + 3


Вы не можете начинать темы
Вы не можете отвечать на сообщения
Вы не можете редактировать свои сообщения
Вы не можете удалять свои сообщения
Вы не можете голосовать в опросах
Вы не можете прикреплять файлы к сообщениям
Вы не можете скачивать файлы