(Baroque concerts) Francois Couperin - Nouveaux Concerts [2CD] (Thomas Brandis, Chiara Banchini, Heinz Holliger) - 1999, FLAC (image+.cue) lossless


 

[Цитировать]

François Couperin - Nouveaux Concerts

Жанр: Baroque concerts
Страна-производитель диска: Made in Germany?
Год издания диска: 1999
Издатель (лейбл): Polydor International GmbH, Hamburg / Archiv Produktion
Номер по каталогу: 459 484-2
Дата записи: 1975
Аудиокодек: FLAC
Тип рипа: image+.cue
Битрейт аудио: lossless
Продолжительность: 56'35 + 66'18
Источник: релизер
сайт-источник/ник/другое: Ice
Наличие сканов в содержимом раздачи: да
Треклист:

скрытый текст

CD1
1-5. Concert No.5 F-Dur
6-10. Concert No.6 B-Dur
11-16. Concert No.7 g-moll
17-21. Concert No.8 G-Dur
CD2
1-8. Concert No.9 E-Dur
9-12. Concert No.10 a-moll
13-20. Concert No.11 c-moll
21-24. Concert No.12 A-Dur
25-28. Concert No.13 G-Dur
29-32. Concert No.14 d-moll
Исполнители:

скрытый текст

François Couperin
Concerts royaux
Concert no 1 in G major by François Couperin
Concert no 2 in D major by François Couperin
Concerts royaux: Concert no 3 in A major by François Couperin
Concerts royaux: Concert no 4 in E minor by François Couperin
Thomas Brandis & Chiara Banchini - violins
Heinz Holliger & Marie-Lise Schüpbach - oboes
Aurèle Nicolet & Christiane Nicolet - flutes
Josef Ulsamer & Laurenzius Strehl - viola da gambas
Manfred Sax - bassoon
Christiane Jaccottet - harpsichord
Audio CD (December 30, 1999)
Лог создания рипа
CD1

скрытый текст

Exact Audio Copy V1.0 beta 3 from 29. August 2011
EAC extraction logfile from 14. March 2012, 16:58
Couperin, Francois / Nouveaux Concerts Nr. 5 - 8 (Brandis, Holliger, Nicolet u.a.)
Used drive : HL-DT-STDVDRAM GH22NS90 Adapter: 3 ID: 0
Read mode : Secure
Utilize accurate stream : Yes
Defeat audio cache : Yes
Make use of C2 pointers : No
Read offset correction : 6
Overread into Lead-In and Lead-Out : No
Fill up missing offset samples with silence : Yes
Delete leading and trailing silent blocks : No
Null samples used in CRC calculations : Yes
Used interface : Native Win32 interface for Win NT & 2000
Used output format : User Defined Encoder
Selected bitrate : 896 kBit/s
Quality : High
Add ID3 tag : No
Command line compressor : C:\Program Files\Exact Audio Copy\FLAC\FLAC.EXE
Additional command line options : -6 -V -T "ARTIST=%artist%" -T "TITLE=%title%" -T "ALBUM=%albumtitle%" -T "DATE=%year%" -T "TRACKNUMBER=%tracknr%" -T "GENRE=%genre%" -T "COMMENT=%comment%" -T "BAND=%albuminterpret%" -T "ALBUMARTIST=%albuminterpret%" -T "COMPOSER=%composer%" %haslyrics%--tag-from-file=LYRICS="%lyricsfile%"%haslyrics% -T "DISCNUMBER=%cdnumber%" -T "TOTALDISCS=%totalcds%" -T "TOTALTRACKS=%numtracks%" %hascover%--picture="%coverfile%"%hascover% %source% -o %dest%
TOC of the extracted CD
Track | Start | Length | Start sector | End sector
---------------------------------------------------------
1 | 0:00.00 | 1:35.00 | 0 | 7124
2 | 1:35.00 | 1:56.00 | 7125 | 15824
3 | 3:31.00 | 3:36.00 | 15825 | 32024
4 | 7:07.00 | 1:58.00 | 32025 | 40874
5 | 9:05.00 | 2:25.00 | 40875 | 51749
6 | 11:30.00 | 2:23.00 | 51750 | 62474
7 | 13:53.00 | 1:36.00 | 62475 | 69674
8 | 15:29.00 | 3:08.00 | 69675 | 83774
9 | 18:37.00 | 1:37.00 | 83775 | 91049
10 | 20:14.00 | 2:34.00 | 91050 | 102599
11 | 22:48.00 | 1:23.00 | 102600 | 108824
12 | 24:11.00 | 2:32.00 | 108825 | 120224
13 | 26:43.00 | 2:26.00 | 120225 | 131174
14 | 29:09.00 | 2:07.00 | 131175 | 140699
15 | 31:16.00 | 1:01.00 | 140700 | 145274
16 | 32:17.00 | 2:27.00 | 145275 | 156299
17 | 34:44.00 | 3:39.00 | 156300 | 172724
18 | 38:23.00 | 2:50.00 | 172725 | 185474
19 | 41:13.00 | 2:28.00 | 185475 | 196574
20 | 43:41.00 | 1:12.00 | 196575 | 201974
21 | 44:53.00 | 1:09.00 | 201975 | 207149
22 | 46:02.00 | 2:04.00 | 207150 | 216449
23 | 48:06.00 | 1:07.00 | 216450 | 221474
24 | 49:13.00 | 2:03.00 | 221475 | 230699
25 | 51:16.00 | 1:03.00 | 230700 | 235424
26 | 52:19.00 | 3:05.00 | 235425 | 249299
27 | 55:24.00 | 1:11.00 | 249300 | 254624
Range status and errors
Selected range
Filename C:\Users\Quantum\Desktop\EAC\Couperin, Francois - Nouveaux Concerts Nr. 5 - 8 (Brandis, Holliger, Nicolet u.a.).wav
Peak level 95.4 %
Extraction speed 1.8 X
Range quality 99.9 %
Test CRC 56757E3C
Copy CRC 56757E3C
Copy OK
No errors occurred
AccurateRip summary
Track 1 accurately ripped (confidence 2) [6AA8B6A3] (AR v1)
Track 2 accurately ripped (confidence 2) [A52605F3] (AR v1)
Track 3 accurately ripped (confidence 2) [5FBFBB15] (AR v1)
Track 4 accurately ripped (confidence 2) [1645C1E8] (AR v1)
Track 5 accurately ripped (confidence 2) [6009A84B] (AR v1)
Track 6 accurately ripped (confidence 2) [375E3847] (AR v1)
Track 7 accurately ripped (confidence 2) [6749E411] (AR v1)
Track 8 accurately ripped (confidence 2) [3F0AE49B] (AR v1)
Track 9 accurately ripped (confidence 2) [E966A110] (AR v1)
Track 10 accurately ripped (confidence 2) [A8D2697A] (AR v1)
Track 11 accurately ripped (confidence 2) [4F96989F] (AR v1)
Track 12 accurately ripped (confidence 2) [D26229CF] (AR v1)
Track 13 accurately ripped (confidence 2) [6F3C6D85] (AR v1)
Track 14 accurately ripped (confidence 2) [D0B26F3C] (AR v1)
Track 15 accurately ripped (confidence 2) [998BDE91] (AR v1)
Track 16 accurately ripped (confidence 2) [76D636F3] (AR v1)
Track 17 accurately ripped (confidence 2) [62FF7BF7] (AR v1)
Track 18 accurately ripped (confidence 2) [5CDD7553] (AR v1)
Track 19 accurately ripped (confidence 2) [B74D0E31] (AR v1)
Track 20 accurately ripped (confidence 2) [9D6038C9] (AR v1)
Track 21 accurately ripped (confidence 2) [B757F73E] (AR v1)
Track 22 accurately ripped (confidence 2) [96704A88] (AR v1)
Track 23 accurately ripped (confidence 2) [85812F43] (AR v1)
Track 24 accurately ripped (confidence 2) [7C8EA4B0] (AR v1)
Track 25 accurately ripped (confidence 2) [60510F88] (AR v1)
Track 26 accurately ripped (confidence 2) [4B9A2D8C] (AR v1)
Track 27 not present in database
26 track(s) accurately ripped
1 track(s) not present in the AccurateRip database
Some tracks could not be verified as accurate
End of status report
---- CUETools DB Plugin V2.1.3
[CTDB TOCID: ueGopxdg5OHbZraJMrm_y1pXNQw-] disk not present in database, Submit result: ueGopxdg5OHbZraJMrm_y1pXNQw- has been uploaded
==== Log checksum F3055D653D2F0392044736FDAE8FF0C27B91F90FF128E4529F04E03DDB520F23 ====
СD2

скрытый текст

Exact Audio Copy V1.0 beta 3 from 29. August 2011
EAC extraction logfile from 14. March 2012, 18:05
Couperin, Francois / Nouveaux Concerts Nr. 9 - 14 (Brandis, Nicolet, Holliger, Ulsamer u.a.)
Used drive : HL-DT-STDVDRAM GH22NS90 Adapter: 3 ID: 0
Read mode : Secure
Utilize accurate stream : Yes
Defeat audio cache : Yes
Make use of C2 pointers : No
Read offset correction : 6
Overread into Lead-In and Lead-Out : No
Fill up missing offset samples with silence : Yes
Delete leading and trailing silent blocks : No
Null samples used in CRC calculations : Yes
Used interface : Native Win32 interface for Win NT & 2000
Used output format : User Defined Encoder
Selected bitrate : 896 kBit/s
Quality : High
Add ID3 tag : No
Command line compressor : C:\Program Files\Exact Audio Copy\FLAC\FLAC.EXE
Additional command line options : -6 -V -T "ARTIST=%artist%" -T "TITLE=%title%" -T "ALBUM=%albumtitle%" -T "DATE=%year%" -T "TRACKNUMBER=%tracknr%" -T "GENRE=%genre%" -T "COMMENT=%comment%" -T "BAND=%albuminterpret%" -T "ALBUMARTIST=%albuminterpret%" -T "COMPOSER=%composer%" %haslyrics%--tag-from-file=LYRICS="%lyricsfile%"%haslyrics% -T "DISCNUMBER=%cdnumber%" -T "TOTALDISCS=%totalcds%" -T "TOTALTRACKS=%numtracks%" %hascover%--picture="%coverfile%"%hascover% %source% -o %dest%
TOC of the extracted CD
Track | Start | Length | Start sector | End sector
---------------------------------------------------------
1 | 0:00.00 | 1:23.00 | 0 | 6224
2 | 1:23.00 | 3:02.00 | 6225 | 19874
3 | 4:25.00 | 2:21.00 | 19875 | 30449
4 | 6:46.00 | 1:29.00 | 30450 | 37124
5 | 8:15.00 | 2:29.00 | 37125 | 48299
6 | 10:44.00 | 2:11.00 | 48300 | 58124
7 | 12:55.00 | 2:31.00 | 58125 | 69449
8 | 15:26.00 | 2:13.00 | 69450 | 79424
9 | 17:39.00 | 1:15.00 | 79425 | 85049
10 | 18:54.00 | 2:37.00 | 85050 | 96824
11 | 21:31.00 | 3:36.00 | 96825 | 113024
12 | 25:07.00 | 1:31.00 | 113025 | 119849
13 | 26:38.00 | 1:43.00 | 119850 | 127574
14 | 28:21.00 | 2:25.00 | 127575 | 138449
15 | 30:46.00 | 2:31.00 | 138450 | 149774
16 | 33:17.00 | 1:39.00 | 149775 | 157199
17 | 34:56.00 | 1:55.00 | 157200 | 165824
18 | 36:51.00 | 3:40.00 | 165825 | 182324
19 | 40:31.00 | 1:56.00 | 182325 | 191024
20 | 42:27.00 | 2:08.00 | 191025 | 200624
21 | 44:35.00 | 1:24.00 | 200625 | 206924
22 | 45:59.00 | 1:50.00 | 206925 | 215174
23 | 47:49.00 | 0:59.00 | 215175 | 219599
24 | 48:48.00 | 2:09.00 | 219600 | 229274
25 | 50:57.00 | 0:53.00 | 229275 | 233249
26 | 51:50.00 | 1:55.00 | 233250 | 241874
27 | 53:45.00 | 1:45.00 | 241875 | 249749
28 | 55:30.00 | 2:03.00 | 249750 | 258974
29 | 57:33.00 | 1:37.00 | 258975 | 266249
30 | 59:10.00 | 1:59.00 | 266250 | 275174
31 | 61:09.00 | 3:11.00 | 275175 | 289499
32 | 64:20.00 | 1:58.00 | 289500 | 298349
Range status and errors
Selected range
Filename C:\Users\Quantum\Desktop\EAC\Couperin, Francois - Nouveaux Concerts Nr. 9 - 14 (Brandis, Nicolet, Holliger, Ulsamer u.a.).wav
Peak level 83.1 %
Extraction speed 1.9 X
Range quality 99.9 %
Test CRC 8BA37302
Copy CRC 8BA37302
Copy OK
No errors occurred
AccurateRip summary
Track 1 accurately ripped (confidence 2) [0F0E4D2A] (AR v1)
Track 2 accurately ripped (confidence 2) [19D6B458] (AR v1)
Track 3 accurately ripped (confidence 2) [A9730149] (AR v1)
Track 4 accurately ripped (confidence 2) [7763EF0E] (AR v1)
Track 5 accurately ripped (confidence 2) [5084CB90] (AR v1)
Track 6 accurately ripped (confidence 2) [A51A9D9F] (AR v1)
Track 7 accurately ripped (confidence 2) [699D517D] (AR v1)
Track 8 accurately ripped (confidence 2) [F5A0257B] (AR v1)
Track 9 accurately ripped (confidence 2) [98E233B8] (AR v1)
Track 10 accurately ripped (confidence 2) [E0C883EF] (AR v1)
Track 11 accurately ripped (confidence 2) [1C80C3C1] (AR v1)
Track 12 accurately ripped (confidence 2) [D7411486] (AR v1)
Track 13 accurately ripped (confidence 2) [BAA52DE0] (AR v1)
Track 14 accurately ripped (confidence 2) [1FD7A32A] (AR v1)
Track 15 accurately ripped (confidence 2) [C7AD960A] (AR v1)
Track 16 accurately ripped (confidence 2) [E024A0B4] (AR v1)
Track 17 accurately ripped (confidence 2) [B8458EE5] (AR v1)
Track 18 accurately ripped (confidence 2) [FE73EED2] (AR v1)
Track 19 accurately ripped (confidence 2) [70CE857B] (AR v1)
Track 20 accurately ripped (confidence 2) [266D8574] (AR v1)
Track 21 accurately ripped (confidence 2) [9EAAE80E] (AR v1)
Track 22 accurately ripped (confidence 2) [51309A51] (AR v1)
Track 23 accurately ripped (confidence 2) [70EBEF13] (AR v1)
Track 24 accurately ripped (confidence 2) [27FCE9CE] (AR v1)
Track 25 accurately ripped (confidence 2) [897295AE] (AR v1)
Track 26 accurately ripped (confidence 2) [B17BF247] (AR v1)
Track 27 accurately ripped (confidence 2) [5DBEC739] (AR v1)
Track 28 accurately ripped (confidence 2) [11D4909B] (AR v1)
Track 29 accurately ripped (confidence 2) [40DEE7EC] (AR v1)
Track 30 accurately ripped (confidence 2) [0B132903] (AR v1)
Track 31 accurately ripped (confidence 2) [CB29CEB2] (AR v1)
Track 32 accurately ripped (confidence 2) [117D6706] (AR v1)
All tracks accurately ripped
End of status report
---- CUETools DB Plugin V2.1.3
[CTDB TOCID: Iy6OJuKsuguSxY3JFBkNTimblKo-] disk not present in database, Submit result: Iy6OJuKsuguSxY3JFBkNTimblKo- has been uploaded
==== Log checksum 4378379CB760DDED1D2A7E9AE2AECB0A5848EB571B0BE45997558240FF2F289E ====
Содержание индексной карты (.CUE)
CD1

скрытый текст

REM GENRE Concerto
REM DATE 1975
REM DISCID 960D431B
REM COMMENT "ExactAudioCopy v1.0b3"
PERFORMER "Couperin, Francois"
TITLE "Nouveaux Concerts Nr. 5 - 8 (Brandis, Holliger, Nicolet u.a.)"
FILE "Couperin, Francois - Nouveaux Concerts Nr. 5 - 8 (Brandis, Holliger, Nicolet u.a.).flac" WAVE
TRACK 01 AUDIO
TITLE "Concerto Nr. 5 F-dur - 1. Prйlude. Gracieusement"
PERFORMER "Couperin, Francois"
INDEX 01 00:00:00
TRACK 02 AUDIO
TITLE "Concerto Nr. 5 F-dur - 2. Allemande. Gayement, et les croches йgales"
PERFORMER "Couperin, Francois"
INDEX 01 01:35:00
TRACK 03 AUDIO
TITLE "Concerto Nr. 5 F-dur - 3. Sarabande. Grave"
PERFORMER "Couperin, Francois"
INDEX 01 03:31:00
TRACK 04 AUDIO
TITLE "Concerto Nr. 5 F-dur - 4. Gavote. Coulamment, es les croches йgales"
PERFORMER "Couperin, Francois"
INDEX 01 07:07:00
TRACK 05 AUDIO
TITLE "Concerto Nr. 5 F-dur - 5. Musйte dans le goыt de Carillon. Rondeau"
PERFORMER "Couperin, Francois"
INDEX 01 09:05:00
TRACK 06 AUDIO
TITLE "Concerto Nr. 6 B-dur - 1. Prйlude. Gravement et mesurй"
PERFORMER "Couperin, Francois"
INDEX 00 11:23:00
INDEX 01 11:30:00
TRACK 07 AUDIO
TITLE "Concerto Nr. 6 B-dur - 2. Allemande а 4 tems lйgrs. Vivement, et les croches ..."
PERFORMER "Couperin, Francois"
INDEX 01 13:53:00
TRACK 08 AUDIO
TITLE "Concerto Nr. 6 B-dur - 3. Sarabande. Mesurйe. Noblement"
PERFORMER "Couperin, Francois"
INDEX 01 15:29:00
TRACK 09 AUDIO
TITLE "Concerto Nr. 6 B-dur - 4. Air de Diable. Tres viste"
PERFORMER "Couperin, Francois"
INDEX 01 18:37:00
TRACK 10 AUDIO
TITLE "Concerto Nr. 6 B-dur - 5. Siciliйne. Tendrement et loыrй"
PERFORMER "Couperin, Francois"
INDEX 01 20:14:00
TRACK 11 AUDIO
TITLE "Concerto Nr. 7 g-moll - 1. Prйlude. Gravement et gracieusement"
PERFORMER "Couperin, Francois"
INDEX 00 22:41:00
INDEX 01 22:48:00
TRACK 12 AUDIO
TITLE "Concerto Nr. 7 g-moll - 2. Allemande. Gayement"
PERFORMER "Couperin, Francois"
INDEX 01 24:11:00
TRACK 13 AUDIO
TITLE "Concerto Nr. 7 g-moll - 3. Sarabande. Grave"
PERFORMER "Couperin, Francois"
INDEX 01 26:43:00
TRACK 14 AUDIO
TITLE "Concerto Nr. 7 g-moll - 4. Fuguйte. Lйgйrement"
PERFORMER "Couperin, Francois"
INDEX 01 29:09:00
TRACK 15 AUDIO
TITLE "Concerto Nr. 7 g-moll - 5. Gavote. Gayement"
PERFORMER "Couperin, Francois"
INDEX 01 31:16:00
TRACK 16 AUDIO
TITLE "Concerto Nr. 7 g-moll - 6. Siciliйne. Tendrement et lourй"
PERFORMER "Couperin, Francois"
INDEX 01 32:17:00
TRACK 17 AUDIO
TITLE "Concerto Nr. 8 G-dur 'Dans le goыt Thйatral' - 1. Ouvertьre"
PERFORMER "Couperin, Francois"
INDEX 00 34:37:00
INDEX 01 34:44:00
TRACK 18 AUDIO
TITLE "Concerto Nr. 8 G-dur 'Dans le goыt Thйatral' - 2. Frande Ritournйle. Gravement"
PERFORMER "Couperin, Francois"
INDEX 01 38:23:00
TRACK 19 AUDIO
TITLE "Concerto Nr. 8 G-dur 'Dans le goыt Thйatral' - 3. Air. Noblement"
PERFORMER "Couperin, Francois"
INDEX 01 41:13:00
TRACK 20 AUDIO
TITLE "Concerto Nr. 8 G-dur 'Dans le goыt Thйatral' - 4. Air Tendre. Rondeau"
PERFORMER "Couperin, Francois"
INDEX 01 43:41:00
TRACK 21 AUDIO
TITLE "Concerto Nr. 8 G-dur 'Dans le goыt Thйatral' - 5. Air Lйger"
PERFORMER "Couperin, Francois"
INDEX 01 44:53:00
TRACK 22 AUDIO
TITLE "Concerto Nr. 8 G-dur 'Dans le goыt Thйatral' - 6. Loure. Pesamment"
PERFORMER "Couperin, Francois"
INDEX 01 46:02:00
TRACK 23 AUDIO
TITLE "Concerto Nr. 8 G-dur 'Dans le goыt Thйatral' - 7. Air. Animй, et lйger"
PERFORMER "Couperin, Francois"
INDEX 01 48:06:00
TRACK 24 AUDIO
TITLE "Concerto Nr. 8 G-dur 'Dans le goыt Thйatral' - 8. Sarabande grave, et tendre"
PERFORMER "Couperin, Francois"
INDEX 01 49:13:00
TRACK 25 AUDIO
TITLE "Concerto Nr. 8 G-dur 'Dans le goыt Thйatral' - 9. Air Lйger"
PERFORMER "Couperin, Francois"
INDEX 01 51:16:00
TRACK 26 AUDIO
TITLE "Concerto Nr. 8 G-dur 'Dans le goыt Thйatral' - 10. Air Tendre. Lentement"
PERFORMER "Couperin, Francois"
INDEX 01 52:19:00
TRACK 27 AUDIO
TITLE "Concerto Nr. 8 G-dur 'Dans le goыt Thйatral' - 11. Air de Baccantes. Tres animй"
PERFORMER "Couperin, Francois"
INDEX 01 55:24:00
CD2

скрытый текст

REM GENRE Concerto
REM DATE 1975
REM DISCID E10F8A20
REM COMMENT "ExactAudioCopy v1.0b3"
PERFORMER "Couperin, Francois"
TITLE "Nouveaux Concerts Nr. 9 - 14 (Brandis, Nicolet, Holliger, Ulsamer u.a.)"
FILE "Couperin, Francois - Nouveaux Concerts Nr. 9 - 14 (Brandis, Nicolet, Holliger, Ulsamer u.a.).flac" WAVE
TRACK 01 AUDIO
TITLE "Concerto Nr. 9 E-dur 'Ritratto dell'amore' - 1. Le Charme. Gracieusement, et ..."
PERFORMER "Couperin, Francois"
INDEX 01 00:00:00
TRACK 02 AUDIO
TITLE "Concerto Nr. 9 E-dur 'Ritratto dell'amore' - 2. L'Enjouement. Gayement"
PERFORMER "Couperin, Francois"
INDEX 01 01:23:00
TRACK 03 AUDIO
TITLE "Concerto Nr. 9 E-dur 'Ritratto dell'amore' - 3. Les Graces. Courante francoise"
PERFORMER "Couperin, Francois"
INDEX 01 04:25:00
TRACK 04 AUDIO
TITLE "Concerto Nr. 9 E-dur 'Ritratto dell'amore' - 4. Le Je-ne-sзay-quoy. Gayement"
PERFORMER "Couperin, Francois"
INDEX 01 06:46:00
TRACK 05 AUDIO
TITLE "Concerto Nr. 9 E-dur 'Ritratto dell'amore' - 5. La Vivacitй"
PERFORMER "Couperin, Francois"
INDEX 01 08:15:00
TRACK 06 AUDIO
TITLE "Concerto Nr. 9 E-dur 'Ritratto dell'amore' - 6. La Noble Fiertй. Sarabande. G..."
PERFORMER "Couperin, Francois"
INDEX 01 10:44:00
TRACK 07 AUDIO
TITLE "Concerto Nr. 9 E-dur 'Ritratto dell'amore' - 7. La Douceur. Amoureusement"
PERFORMER "Couperin, Francois"
INDEX 01 12:55:00
TRACK 08 AUDIO
TITLE "Concerto Nr. 9 E-dur 'Ritratto dell'amore' - 8. L'et Coetera ou Menuets"
PERFORMER "Couperin, Francois"
INDEX 01 15:26:00
TRACK 09 AUDIO
TITLE "Concerto Nr. 10 a-moll - 1. Prйlude. Gravement et mesurй"
PERFORMER "Couperin, Francois"
INDEX 00 17:33:00
INDEX 01 17:39:00
TRACK 10 AUDIO
TITLE "Concerto Nr. 10 a-moll - 2. Air Tendre et Lourй. Sans lenteur"
PERFORMER "Couperin, Francois"
INDEX 01 18:54:00
TRACK 11 AUDIO
TITLE "Concerto Nr. 10 a-moll - 3. Plainte pour les Violes ou autres instrumens а l'..."
PERFORMER "Couperin, Francois"
INDEX 01 21:31:00
TRACK 12 AUDIO
TITLE "Concerto Nr. 10 a-moll - 4. La Tromba. Lйgйrement"
PERFORMER "Couperin, Francois"
INDEX 01 25:07:00
TRACK 13 AUDIO
TITLE "Concerto Nr. 11 c-moll - 1. Prйlude. Majesteusement, sans top de lenteur"
PERFORMER "Couperin, Francois"
INDEX 00 26:31:00
INDEX 01 26:38:00
TRACK 14 AUDIO
TITLE "Concerto Nr. 11 c-moll - 2. Allemande. Fiйrement, sans lenteur"
PERFORMER "Couperin, Francois"
INDEX 01 28:21:00
TRACK 15 AUDIO
TITLE "Concerto Nr. 11 c-moll - 3. Seconde Allemande. Plus Lйgйre"
PERFORMER "Couperin, Francois"
INDEX 01 30:46:00
TRACK 16 AUDIO
TITLE "Concerto Nr. 11 c-moll - 4. Courante"
PERFORMER "Couperin, Francois"
INDEX 01 33:17:00
TRACK 17 AUDIO
TITLE "Concerto Nr. 11 c-moll - 5. Deuxiиme Courante. Majeur"
PERFORMER "Couperin, Francois"
INDEX 01 34:56:00
TRACK 18 AUDIO
TITLE "Concerto Nr. 11 c-moll - 6. Sarabande tres grave, et tres marquйe"
PERFORMER "Couperin, Francois"
INDEX 01 36:51:00
TRACK 19 AUDIO
TITLE "Concerto Nr. 11 c-moll - 7. Gigue Lourйe"
PERFORMER "Couperin, Francois"
INDEX 01 40:31:00
TRACK 20 AUDIO
TITLE "Concerto Nr. 11 c-moll - 8. Rondeau. Lйgйrement et galamment"
PERFORMER "Couperin, Francois"
INDEX 01 42:27:00
TRACK 21 AUDIO
TITLE "Concerto Nr. 12 A-dur - 1. Prйlude pointй-coulй"
PERFORMER "Couperin, Francois"
INDEX 00 44:29:00
INDEX 01 44:35:00
TRACK 22 AUDIO
TITLE "Concerto Nr. 12 A-dur - 2. Badinage"
PERFORMER "Couperin, Francois"
INDEX 01 45:59:00
TRACK 23 AUDIO
TITLE "Concerto Nr. 12 A-dur - 3. Lentement, et patйtiquement"
PERFORMER "Couperin, Francois"
INDEX 01 47:49:00
TRACK 24 AUDIO
TITLE "Concerto Nr. 12 A-dur - 4. Air. Gracieusement, et lйgйrement"
PERFORMER "Couperin, Francois"
INDEX 01 48:48:00
TRACK 25 AUDIO
TITLE "Concerto Nr. 13 G-dur - 1. Prйlude. Vivement"
PERFORMER "Couperin, Francois"
INDEX 00 50:51:00
INDEX 01 50:57:00
TRACK 26 AUDIO
TITLE "Concerto Nr. 13 G-dur - 2. Air. Agrйablement"
PERFORMER "Couperin, Francois"
INDEX 01 51:50:00
TRACK 27 AUDIO
TITLE "Concerto Nr. 13 G-dur - 3. Sarabande. Tendrement"
PERFORMER "Couperin, Francois"
INDEX 01 53:45:00
TRACK 28 AUDIO
TITLE "Concerto Nr. 13 G-dur - 4. Chaconne. Lйgere"
PERFORMER "Couperin, Francois"
INDEX 01 55:30:00
TRACK 29 AUDIO
TITLE "Concerto Nr. 14 d-moll 'Et dernier de cйt oeuvre' - 1. Prйlude. Gravement"
PERFORMER "Couperin, Francois"
INDEX 00 57:28:00
INDEX 01 57:33:00
TRACK 30 AUDIO
TITLE "Concerto Nr. 14 d-moll 'Et dernier de cйt oeuvre' - 2. Allemande. Vivement"
PERFORMER "Couperin, Francois"
INDEX 01 59:10:00
TRACK 31 AUDIO
TITLE "Concerto Nr. 14 d-moll 'Et dernier de cйt oeuvre' - 3. Sarabande grave"
PERFORMER "Couperin, Francois"
INDEX 01 61:09:00
TRACK 32 AUDIO
TITLE "Concerto Nr. 14 d-moll 'Et dernier de cйt oeuvre' - 4. Fuguйte"
PERFORMER "Couperin, Francois"
INDEX 01 64:20:00



Показать сообщения:    

Текущее время: 07-Дек 00:48

Часовой пояс: UTC + 3


Вы не можете начинать темы
Вы не можете отвечать на сообщения
Вы не можете редактировать свои сообщения
Вы не можете удалять свои сообщения
Вы не можете голосовать в опросах
Вы не можете прикреплять файлы к сообщениям
Вы не можете скачивать файлы