(Baroque messes, orgue, motets) Francois Couperin - Messes, Orgue, Plain Chant, Motets [2CD] (Isabelle Poulenard, Jean-Patrice Brosse, Francois Le Roux / Choeur Gregorien du Val-du-Grace, Louis-Marie Vigne) - 1992, FLAC (image+.cue) lossless


Статистика раздачи [Обновить пиров]
Размер:  592 MB   |    Зарегистрирован:  8 месяцев 17 дней   |    Скачан:  0 раз

Полного источника не было: Никогда

Личеров:  3  [  0 KB/s  ]   Подробная статистика пиров
 
   
 
 
 

[Цитировать]

François Couperin - Messes, Orgue, Plain Chant, Motets

Жанр: Baroque messes, orgue, motets
Страна-производитель диска: Made in Germany
Год издания диска: 1992
Издатель (лейбл): EMI France
Номер по каталогу: CDS 7 54224 2
Дата записи: 1991
Аудиокодек: FLAC
Тип рипа: image+.cue
Битрейт аудио: lossless
Продолжительность: 59'50 + 53'06
Источник: релизер
сайт-источник/ник/другое: Saoshya and Meeting in Music blogspot
Наличие сканов в содержимом раздачи: да
Треклист:

скрытый текст

CD1

скрытый текст

01. Kyrie. Plein chant du premier Kyrie en taille - Kyrie eleison 01:34
02. Fugue sur les jeux d’anches, 2e couplet - Christe eleison 02:26
03. Récit de chromhorne, 3e couplet - Christe eleison 02:47
04. Dialogue sur la trompette et le chromhorne, 4e couplet - Kyrie eleison 02:03
05. Plein chant, 5e et dernier couplet 00:53
06. Gloria. Gloria in excelsis Deo - Plein jeu - Et in terra pax - Laudamus te 01:09
07. Petitte fugue sur le chromhorne, 2e couplet du Gloria - Laudamus te 00:49
08. Duo sur les tierces, 3e couplet - Gratias agimus tibi 01:49
09. Dialogue sur les trompettes, clairon et tierces..., 4e couplet - Domine, Fili unigenite 02:34
10. Trio à 2 dessus de chromhorne et la basse de tierce, 5e couplet - Qui tollis peccata mundi 01:38
11. Tierce en taille, 6e couplet - Qui sedes 03:26
12. Dialogue sur la voix humaine, 7e couplet - Tu solus Dominus 03:11
13. Dialogue en trio du cornet et de la tierce, 8e couplet - Cum sancto spiritu 03:04
14. Dialogue sur les grands jeux, 9e et dernier couplet 01:29
15. Credo. Credo in unum Deum 04:07
16. Credo. Offertoire sur les grands jeux 07:32
17. Sanctus. Plein chant du premier Sanctus en canon - Sanctus 00:50
18. Sanctus. Récit du cornet, 2e couplet - Pleni sunt coeli et terra 02:09
19. Benedictus. Chromhorne en taille 03:10
20. Benedictus. Élévation “O misterium ineffabile”, motet pour dessus et basse 04:18
21. Agnus Dei. Plein chant de l’Agnus Dei en basse et en taille (alternativement) - Agnus Dei 02:18
22. Dialogue sur les grands jeux, 3e couplet de l’Agnus 02:06
23. Ite missa est - Deo gratias, petit plein jeu 01:20
24. “Domine salvum fac regem”, motet pour dessus et basse 02:56
CD2

скрытый текст

01. Kyrie. Plein jeu - Premier couplet du Kyrie - Kyrie eleison 01:32
02. Fugue sur la trompette, 2e couplet du Kyrie - Christe eleison 01:51
03. Récit de chromhorne - Christe eleison 02:45
04. Trio à 2 dessus de chromhorne et la basse de tierce, 4e couplet du Kyrie - Kyrie eleison 01:25
05. Dialogue sur la trompette du grand clavier..., 5e et dernier couplet du Kyrie 01:52
06. Gloria. Gloria in excelsis De. Plein jeu, 1er couplet de Gloria - Laudamus te 01:48
07. Petitte fugue sur le chromhorne, 2e couplet - Adoramus te 00:40
08. Duo sur les tierces, 3e couplet - Gratias agimus tibi 01:43
09. Basse de trompette, 4e couplet - Domine fili unigenite 02:08
10. Chromhorne sur la taille, 5e couplet - Qui tollis peccata mundi 02:52
11. Dialogue sur la voix humaine, 6e couplet - Qui sedes 02:23
12. Trio, les dessus sur la tierce et la basse sur la trompette, 7e couplet - Tu solus Dominus 01:25
13. Récit de tierce, 8e couplet - Cum sancto spiritu 01:54
14. Dialogue sur les grands jeux, dernier couplet 01:24
15. Credo. Credo in unum Deum 03:53
16. Credo. Offertoire sur les grands jeux 04:59
17. Sanctus. Premier couplet du Sanctus. plein jeu - Sanctus 00:52
18. Récit du cornet, 2e couplet - Pleni sunt coeli et terra 01:06
19. Élévation - Tierce en taille 02:51
20. Benedictus. Benedictus - Hosanna 00:20
21. Agnus Dei. Plein jeu - Agnus Dei 01:04
22. Dialogue sur les grands jeux, 2e et dernier couplet d’Agnus 01:09
23. Communion. “Quid retribuam tibi domine”, motet pour dessus 06:31
24. Ite missa est - Deo gratias, petit plein jeu 01:04
25. “Domine salvum fac Regem”, motet pour dessus et basse 03:20
Исполнители:

скрытый текст

François Couperin (1668-1733)
Messes, Orgue, Plain Chant, Motets
Jean-Patrice Brosse (Organ)
СD1
Isabelle Poulenard - сопрано
Francois Le Roux - баритон
CD2
Jacques des Longchamps - альт
Francois Le Roux - баритон
Choeur Gregorien du Val-du-Grace
Louis-Marie Vigne - дирижёр
Audio CD (August 18, 1992)
Лог создания рипа
CD1

скрытый текст

Exact Audio Copy V0.99 prebeta 4 from 23. January 2008
EAC extraction logfile from 15. October 2014, 21:43
Jean-Patrice Brosse, et al. / François Couperin - Messes. Messe à l’usage des Paroisses CD1
Used drive : SONY DVD-ROM DDU1615 Adapter: 0 ID: 0
Read mode : Secure
Utilize accurate stream : Yes
Defeat audio cache : Yes
Make use of C2 pointers : No
Read offset correction : 6
Overread into Lead-In and Lead-Out : No
Fill up missing offset samples with silence : Yes
Delete leading and trailing silent blocks : No
Null samples used in CRC calculations : Yes
Used interface : Native Win32 interface for Win NT & 2000
Used output format : User Defined Encoder
Selected bitrate : 1024 kBit/s
Quality : High
Add ID3 tag : No
Command line compressor : C:\Program Files\REACT\REACT.exe
Additional command line options : REACT %o %s %d "%a" "%g" "%t" "%n" "%x" "%y" "%m" "%e" "%f" "%b" %r
TOC of the extracted CD
Track | Start | Length | Start sector | End sector
---------------------------------------------------------
1 | 0:00.32 | 1:34.23 | 32 | 7104
2 | 1:34.55 | 2:26.42 | 7105 | 18096
3 | 4:01.22 | 2:47.73 | 18097 | 30694
4 | 6:49.20 | 2:03.60 | 30695 | 39979
5 | 8:53.05 | 0:53.32 | 39980 | 43986
6 | 9:46.37 | 1:09.45 | 43987 | 49206
7 | 10:56.07 | 0:49.25 | 49207 | 52906
8 | 11:45.32 | 1:49.13 | 52907 | 61094
9 | 13:34.45 | 2:34.10 | 61095 | 72654
10 | 16:08.55 | 1:38.60 | 72655 | 80064
11 | 17:47.40 | 3:26.35 | 80065 | 95549
12 | 21:14.00 | 3:11.17 | 95550 | 109891
13 | 24:25.17 | 3:04.73 | 109892 | 123764
14 | 27:30.15 | 1:29.55 | 123765 | 130494
15 | 28:59.70 | 4:07.47 | 130495 | 149066
16 | 33:07.42 | 7:32.18 | 149067 | 182984
17 | 40:39.60 | 0:50.50 | 182985 | 186784
18 | 41:30.35 | 2:09.05 | 186785 | 196464
19 | 43:39.40 | 3:10.62 | 196465 | 210776
20 | 46:50.27 | 4:18.15 | 210777 | 230141
21 | 51:08.42 | 2:18.00 | 230142 | 240491
22 | 53:26.42 | 2:06.55 | 240492 | 249996
23 | 55:33.22 | 1:20.73 | 249997 | 256069
24 | 56:54.20 | 2:56.72 | 256070 | 269341
Range status and errors
Selected range
Filename L:\Ripped by Saoshya\EMI CDS 7 54224 2 Francois Couperin - Messes. Orgue, Plain Chant, Motets (Jean-Patrice Brosse)\CDImage 1\F Couperin - Messes - Jean-Patrice Brosse CD1.wav
Peak level 55.4 %
Range quality 99.9 %
Test CRC B7A898E9
Copy CRC B7A898E9
Copy OK
No errors occurred
AccurateRip summary
Track 1 accurately ripped (confidence 2) [F6A1A26C]
Track 2 accurately ripped (confidence 2) [3688104D]
Track 3 accurately ripped (confidence 2) [CB251292]
Track 4 accurately ripped (confidence 2) [7BA2C0C1]
Track 5 accurately ripped (confidence 2) [8E6B5FBB]
Track 6 accurately ripped (confidence 2) [BA1E4AF5]
Track 7 accurately ripped (confidence 2) [85C63E9F]
Track 8 accurately ripped (confidence 2) [BFDBF082]
Track 9 accurately ripped (confidence 2) [EF22943E]
Track 10 accurately ripped (confidence 2) [780708CA]
Track 11 accurately ripped (confidence 2) [FC88B4F0]
Track 12 accurately ripped (confidence 2) [F78B9D3A]
Track 13 accurately ripped (confidence 2) [290DBCD3]
Track 14 accurately ripped (confidence 2) [444A623F]
Track 15 accurately ripped (confidence 2) [70C48494]
Track 16 accurately ripped (confidence 2) [8076968E]
Track 17 accurately ripped (confidence 2) [3063C1DE]
Track 18 accurately ripped (confidence 2) [0F05CC02]
Track 19 accurately ripped (confidence 2) [1397B823]
Track 20 accurately ripped (confidence 2) [3A647778]
Track 21 accurately ripped (confidence 2) [ECB907F4]
Track 22 accurately ripped (confidence 2) [A446FD7F]
Track 23 accurately ripped (confidence 2) [1F0594D7]
Track 24 accurately ripped (confidence 2) [FE8D1E2C]
All tracks accurately ripped
End of status report
CD2

скрытый текст

Exact Audio Copy V0.99 prebeta 4 from 23. January 2008
EAC extraction logfile from 15. October 2014, 22:04
Jean-Patrice Brosse, et al. / François Couperin - Messes. Messe propre pour les Convents... CD2
Used drive : SONY DVD-ROM DDU1615 Adapter: 0 ID: 0
Read mode : Secure
Utilize accurate stream : Yes
Defeat audio cache : Yes
Make use of C2 pointers : No
Read offset correction : 6
Overread into Lead-In and Lead-Out : No
Fill up missing offset samples with silence : Yes
Delete leading and trailing silent blocks : No
Null samples used in CRC calculations : Yes
Used interface : Native Win32 interface for Win NT & 2000
Used output format : User Defined Encoder
Selected bitrate : 1024 kBit/s
Quality : High
Add ID3 tag : No
Command line compressor : C:\Program Files\REACT\REACT.exe
Additional command line options : REACT %o %s %d "%a" "%g" "%t" "%n" "%x" "%y" "%m" "%e" "%f" "%b" %r
TOC of the extracted CD
Track | Start | Length | Start sector | End sector
---------------------------------------------------------
1 | 0:00.32 | 1:32.03 | 32 | 6934
2 | 1:32.35 | 1:51.72 | 6935 | 15331
3 | 3:24.32 | 2:45.40 | 15332 | 27746
4 | 6:09.72 | 1:25.58 | 27747 | 34179
5 | 7:35.55 | 1:52.25 | 34180 | 42604
6 | 9:28.05 | 1:48.30 | 42605 | 50734
7 | 11:16.35 | 0:40.05 | 50735 | 53739
8 | 11:56.40 | 1:43.25 | 53740 | 61489
9 | 13:39.65 | 2:08.47 | 61490 | 71136
10 | 15:48.37 | 2:52.08 | 71137 | 84044
11 | 18:40.45 | 2:23.72 | 84045 | 94841
12 | 21:04.42 | 1:25.28 | 94842 | 101244
13 | 22:29.70 | 1:54.27 | 101245 | 109821
14 | 24:24.22 | 1:24.43 | 109822 | 116164
15 | 25:48.65 | 3:53.72 | 116165 | 133711
16 | 29:42.62 | 4:59.33 | 133712 | 156169
17 | 34:42.20 | 0:52.07 | 156170 | 160076
18 | 35:34.27 | 1:06.73 | 160077 | 165099
19 | 36:41.25 | 2:51.20 | 165100 | 177944
20 | 39:32.45 | 0:20.55 | 177945 | 179499
21 | 39:53.25 | 1:04.05 | 179500 | 184304
22 | 40:57.30 | 1:09.47 | 184305 | 189526
23 | 42:07.02 | 6:31.53 | 189527 | 218904
24 | 48:38.55 | 1:04.52 | 218905 | 223756
25 | 49:43.32 | 3:20.15 | 223757 | 238771
Range status and errors
Selected range
Filename L:\Ripped by Saoshya\EMI CDS 7 54224 2 Francois Couperin - Messes. Orgue, Plain Chant, Motets (Jean-Patrice Brosse)\CDImage 2\F Couperin - Messes - Jean-Patrice Brosse CD2.wav
Peak level 51.5 %
Range quality 99.9 %
Test CRC 334842F7
Copy CRC 334842F7
Copy OK
No errors occurred
AccurateRip summary
Track 1 accurately ripped (confidence 2) [09A0CA86]
Track 2 accurately ripped (confidence 2) [ABAED63E]
Track 3 accurately ripped (confidence 2) [B294F940]
Track 4 accurately ripped (confidence 2) [2E515B8F]
Track 5 accurately ripped (confidence 2) [DAAE2140]
Track 6 accurately ripped (confidence 2) [F77CE03E]
Track 7 accurately ripped (confidence 2) [C3F9A6C0]
Track 8 accurately ripped (confidence 2) [938E9B43]
Track 9 accurately ripped (confidence 2) [767FC686]
Track 10 accurately ripped (confidence 2) [64B27D37]
Track 11 accurately ripped (confidence 2) [5F382BC0]
Track 12 accurately ripped (confidence 2) [7C6BEC00]
Track 13 accurately ripped (confidence 2) [36E10A79]
Track 14 accurately ripped (confidence 2) [20043C90]
Track 15 accurately ripped (confidence 2) [C57F61C2]
Track 16 accurately ripped (confidence 2) [C2597CB2]
Track 17 accurately ripped (confidence 2) [C47F0F1C]
Track 18 accurately ripped (confidence 2) [4A5CB472]
Track 19 accurately ripped (confidence 2) [3DA0B6B6]
Track 20 accurately ripped (confidence 2) [30D56C36]
Track 21 accurately ripped (confidence 2) [26CB7416]
Track 22 accurately ripped (confidence 2) [3174F3DB]
Track 23 accurately ripped (confidence 2) [22D11472]
Track 24 accurately ripped (confidence 2) [BA4A951E]
Track 25 accurately ripped (confidence 2) [CEAD17E2]
All tracks accurately ripped
End of status report
Содержание индексной карты (.CUE)
CD1

скрытый текст

REM GENRE Baroque
REM DATE 1991
REM DISCID 520E0718
REM COMMENT "ExactAudioCopy v0.99pb4"
PERFORMER "Jean-Patrice Brosse, et al."
TITLE "François Couperin - Messes. Messe à l’usage des Paroisses CD1"
FILE "F Couperin - Messes - Jean-Patrice Brosse CD1.wav" WAVE
TRACK 01 AUDIO
TITLE "Kyrie. Plein chant du premier Kyrie en taille - Kyrie eleison"
PERFORMER "Jean-Patrice Brosse, et al."
INDEX 00 00:00:00
INDEX 01 00:00:32
TRACK 02 AUDIO
TITLE "Kyrie. Fugue sur les jeux d’anches, 2e couplet - Christe eleison"
PERFORMER "Jean-Patrice Brosse, et al."
INDEX 01 01:34:55
TRACK 03 AUDIO
TITLE "Kyrie. Récit de chromhorne, 3e couplet - Christe eleison"
PERFORMER "Jean-Patrice Brosse, et al."
INDEX 01 04:01:22
TRACK 04 AUDIO
TITLE "Kyrie. Dialogue sur la trompette et le chromhorne, 4e couplet - Kyrie eleison"
PERFORMER "Jean-Patrice Brosse, et al."
INDEX 01 06:49:20
TRACK 05 AUDIO
TITLE "Kyrie. Plein chant, 5e et dernier couplet"
PERFORMER "Jean-Patrice Brosse, et al."
INDEX 01 08:53:05
TRACK 06 AUDIO
TITLE "Gloria. Gloria in excelsis Deo - Plein jeu - Et in terra pax - Laudamus te"
PERFORMER "Jean-Patrice Brosse, et al."
INDEX 01 09:46:37
TRACK 07 AUDIO
TITLE "Gloria. Petitte fugue sur le chromhorne, 2e couplet du Gloria - Laudamus te"
PERFORMER "Jean-Patrice Brosse, et al."
INDEX 01 10:56:07
TRACK 08 AUDIO
TITLE "Gloria. Duo sur les tierces, 3e couplet - Gratias agimus tibi"
PERFORMER "Jean-Patrice Brosse, et al."
INDEX 01 11:45:32
TRACK 09 AUDIO
TITLE "Gloria. Dialogue sur les trompettes, clairon et tierces..., 4e couplet - Domine, Fili unigenite"
PERFORMER "Jean-Patrice Brosse, et al."
INDEX 01 13:34:45
TRACK 10 AUDIO
TITLE "Gloria. Trio à 2 dessus de chromhorne et la basse de tierce, 5e couplet - Qui tollis peccata mundi"
PERFORMER "Jean-Patrice Brosse, et al."
INDEX 01 16:08:55
TRACK 11 AUDIO
TITLE "Gloria. Tierce en taille, 6e couplet - Qui sedes"
PERFORMER "Jean-Patrice Brosse, et al."
INDEX 01 17:47:40
TRACK 12 AUDIO
TITLE "Gloria. Dialogue sur la voix humaine, 7e couplet - Tu solus Dominus"
PERFORMER "Jean-Patrice Brosse, et al."
INDEX 01 21:14:00
TRACK 13 AUDIO
TITLE "Gloria. Dialogue en trio du cornet et de la tierce, 8e couplet - Cum sancto spiritu"
PERFORMER "Jean-Patrice Brosse, et al."
INDEX 01 24:25:17
TRACK 14 AUDIO
TITLE "Gloria. Dialogue sur les grands jeux, 9e et dernier couplet"
PERFORMER "Jean-Patrice Brosse, et al."
INDEX 01 27:30:15
TRACK 15 AUDIO
TITLE "Credo. Credo in unum Deum"
PERFORMER "Jean-Patrice Brosse, et al."
INDEX 01 28:59:70
TRACK 16 AUDIO
TITLE "Credo. Offertoire sur les grands jeux"
PERFORMER "Jean-Patrice Brosse, et al."
INDEX 01 33:07:42
TRACK 17 AUDIO
TITLE "Sanctus. Plein chant du premier Sanctus en canon - Sanctus"
PERFORMER "Jean-Patrice Brosse, et al."
INDEX 01 40:39:60
TRACK 18 AUDIO
TITLE "Sanctus. Récit du cornet, 2e couplet - Pleni sunt coeli et terra"
PERFORMER "Jean-Patrice Brosse, et al."
INDEX 01 41:30:35
TRACK 19 AUDIO
TITLE "Benedictus. Chromhorne en taille"
PERFORMER "Jean-Patrice Brosse, et al."
INDEX 01 43:39:40
TRACK 20 AUDIO
TITLE "Benedictus. Élévation “O misterium ineffabile”, motet pour dessus et basse"
PERFORMER "Jean-Patrice Brosse, et al."
INDEX 01 46:50:27
TRACK 21 AUDIO
TITLE "Agnus Dei. Plein chant de l’Agnus Dei en basse et en taille (alternativement) - Agnus Dei"
PERFORMER "Jean-Patrice Brosse, et al."
INDEX 01 51:08:42
TRACK 22 AUDIO
TITLE "Agnus Dei. Dialogue sur les grands jeux, 3e couplet de l’Agnus"
PERFORMER "Jean-Patrice Brosse, et al."
INDEX 01 53:26:42
TRACK 23 AUDIO
TITLE "Agnus Dei. Ite missa est - Deo gratias, petit plein jeu"
PERFORMER "Jean-Patrice Brosse, et al."
INDEX 01 55:33:22
TRACK 24 AUDIO
TITLE "Agnus Dei. “Domine salvum fac regem”, motet pour dessus et basse"
PERFORMER "Jean-Patrice Brosse, et al."
INDEX 01 56:54:20
CD2

скрытый текст

REM GENRE Baroque
REM DATE 1991
REM DISCID 5B0C6F19
REM COMMENT "ExactAudioCopy v0.99pb4"
PERFORMER "Jean-Patrice Brosse, et al."
TITLE "François Couperin - Messes. Messe propre pour les Convents... CD2"
FILE "F Couperin - Messes - Jean-Patrice Brosse CD2.wav" WAVE
TRACK 01 AUDIO
TITLE "Kyrie. Plein jeu - Premier couplet du Kyrie - Kyrie eleison"
PERFORMER "Jean-Patrice Brosse, et al."
INDEX 00 00:00:00
INDEX 01 00:00:32
TRACK 02 AUDIO
TITLE "Kyrie. Fugue sur la trompette, 2e couplet du Kyrie - Christe eleison"
PERFORMER "Jean-Patrice Brosse, et al."
INDEX 01 01:32:35
TRACK 03 AUDIO
TITLE "Kyrie. Récit de chromhorne - Christe eleison"
PERFORMER "Jean-Patrice Brosse, et al."
INDEX 01 03:24:32
TRACK 04 AUDIO
TITLE "Kyrie. Trio à 2 dessus de chromhorne et la basse de tierce, 4e couplet du Kyrie - Kyrie eleison"
PERFORMER "Jean-Patrice Brosse, et al."
INDEX 01 06:09:72
TRACK 05 AUDIO
TITLE "Kyrie. Dialogue sur la trompette du grand clavier..., 5e et dernier couplet du Kyrie"
PERFORMER "Jean-Patrice Brosse, et al."
INDEX 01 07:35:55
TRACK 06 AUDIO
TITLE "Gloria. Gloria in excelsis De. Plein jeu, 1er couplet de Gloria - Laudamus te"
PERFORMER "Jean-Patrice Brosse, et al."
INDEX 01 09:28:05
TRACK 07 AUDIO
TITLE "Gloria. Petitte fugue sur le chromhorne, 2e couplet - Adoramus te"
PERFORMER "Jean-Patrice Brosse, et al."
INDEX 01 11:16:35
TRACK 08 AUDIO
TITLE "Gloria. Duo sur les tierces, 3e couplet - Gratias agimus tibi"
PERFORMER "Jean-Patrice Brosse, et al."
INDEX 01 11:56:40
TRACK 09 AUDIO
TITLE "Gloria. Basse de trompette, 4e couplet - Domine fili unigenite"
PERFORMER "Jean-Patrice Brosse, et al."
INDEX 01 13:39:65
TRACK 10 AUDIO
TITLE "Gloria. Chromhorne sur la taille, 5e couplet - Qui tollis peccata mundi"
PERFORMER "Jean-Patrice Brosse, et al."
INDEX 01 15:48:37
TRACK 11 AUDIO
TITLE "Gloria. Dialogue sur la voix humaine, 6e couplet - Qui sedes"
PERFORMER "Jean-Patrice Brosse, et al."
INDEX 01 18:40:45
TRACK 12 AUDIO
TITLE "Gloria. Trio, les dessus sur la tierce et la basse sur la trompette, 7e couplet - Tu solus Dominus"
PERFORMER "Jean-Patrice Brosse, et al."
INDEX 01 21:04:42
TRACK 13 AUDIO
TITLE "Gloria. Récit de tierce, 8e couplet - Cum sancto spiritu"
PERFORMER "Jean-Patrice Brosse, et al."
INDEX 01 22:29:70
TRACK 14 AUDIO
TITLE "Gloria. Dialogue sur les grands jeux, dernier couplet"
PERFORMER "Jean-Patrice Brosse, et al."
INDEX 01 24:24:22
TRACK 15 AUDIO
TITLE "Credo. Credo in unum Deum"
PERFORMER "Jean-Patrice Brosse, et al."
INDEX 01 25:48:65
TRACK 16 AUDIO
TITLE "Credo. Offertoire sur les grands jeux"
PERFORMER "Jean-Patrice Brosse, et al."
INDEX 01 29:42:62
TRACK 17 AUDIO
TITLE "Sanctus. Premier couplet du Sanctus. plein jeu - Sanctus"
PERFORMER "Jean-Patrice Brosse, et al."
INDEX 01 34:42:20
TRACK 18 AUDIO
TITLE "Sanctus. Récit du cornet, 2e couplet - Pleni sunt coeli et terra"
PERFORMER "Jean-Patrice Brosse, et al."
INDEX 01 35:34:27
TRACK 19 AUDIO
TITLE "Sanctus. Élévation - Tierce en taille"
PERFORMER "Jean-Patrice Brosse, et al."
INDEX 01 36:41:25
TRACK 20 AUDIO
TITLE "Benedictus. Benedictus - Hosanna"
PERFORMER "Jean-Patrice Brosse, et al."
INDEX 01 39:32:45
TRACK 21 AUDIO
TITLE "Agnus Dei. Plein jeu - Agnus Dei"
PERFORMER "Jean-Patrice Brosse, et al."
INDEX 01 39:53:25
TRACK 22 AUDIO
TITLE "Agnus Dei. Dialogue sur les grands jeux, 2e et dernier couplet d’Agnus"
PERFORMER "Jean-Patrice Brosse, et al."
INDEX 01 40:57:30
TRACK 23 AUDIO
TITLE "Agnus Dei. Communion. “Quid retribuam tibi domine”, motet pour dessus"
PERFORMER "Jean-Patrice Brosse, et al."
INDEX 01 42:07:02
TRACK 24 AUDIO
TITLE "Agnus Dei. Ite missa est - Deo gratias, petit plein jeu"
PERFORMER "Jean-Patrice Brosse, et al."
INDEX 01 48:38:55
TRACK 25 AUDIO
TITLE "Agnus Dei. “Domine salvum fac Regem”, motet pour dessus et basse"
PERFORMER "Jean-Patrice Brosse, et al."
INDEX 01 49:43:32
[teatrix.ru].t19861.torrent 
Торрент: Зарегистрирован [ 2016-03-19 00:24 ] · B08A4E7ACD06D49AB30B8C6724A450146F6FA1EC

Скачать .torrent

Скачать

14 KB

Статус: проверено
Скачан: 0 раз
Размер: 592 MB
terms.php



Быстрый ответ

Имя:

      
Для отправки сообщений необходимо включить JavaScript
Показать сообщения:    

Текущее время: 05-Дек 03:31

Часовой пояс: UTC + 3


Вы можете начинать темы
Вы можете отвечать на сообщения
Вы не можете редактировать свои сообщения
Вы не можете удалять свои сообщения
Вы не можете голосовать в опросах
Вы не можете прикреплять файлы к сообщениям
Вы можете скачивать файлы