(Classical) Brodsky Quartet - Petits-fours: Favourite Encores - Sarasate, de Falla, Elgar, Schumann, Mendelssohn, Kreisler, Ravel, Прокофьев, Шостакович, Debussy - 2012, FLAC (image+.cue) lossless


 

[Цитировать]

Brodsky Quartet - Petits-fours: Favourite Encores - Sarasate, de Falla, Elgar, Schumann, Mendelssohn, Kreisler, Ravel, Прокофьев, Шостакович, Debussy
Жанр: Classical
Страна-производитель диска: UK
Год издания диска: 2012
Издатель (лейбл): Chandos Records
Номер по каталогу: CHAN 10708
Дата записи: 2011
Аудиокодек: FLAC
Тип рипа: image+.cue
Битрейт аудио: lossless
Продолжительность: 66:04
Источник: собственный рип
Наличие сканов в содержимом раздачи: да
Треклист:
Pablo de Sarasate (1844 – 1908)
[1] Playera
No. 1 from Spanische Tänze, Op. 23
for Violin and Piano
Arranged for String Quartet by Paul Cassidy
Manuel de Falla (1876 – 1946)
[2] Polo
No. 7 from Siete Canciones Populares Españolas
for Voice and Piano
Arranged for String Quartet by Andrew Haveron
[3] Nana
No. 5 from Siete Canciones Populares Españolas
for Voice and Piano
Arranged for String Quartet by Andrew Haveron
Pablo de Sarasate
[4] Zapateado
No. 2 from Spanische Tänze, Op. 23
for Violin and Piano
Arranged for String Quartet by Paul Cassidy
Sir Edward Elgar (1857 – 1934)
[5] Chanson de matin, Op. 15 No. 2*
for Violin and Piano
Arranged for String Quartet by Paul Cassidy
[6] La Capricieuse, Op. 17
for Violin and Piano
Arranged for String Quartet by Paul Cassidy
[7] Chanson de nuit, Op. 15 No. 1
for Violin and Piano
Arranged for String Quartet by Paul Cassidy
Antonín Dvořák (1841 – 1904)
[8] Humoresque
No. 7 from Humoresques, Op. 101, B 187
for Piano
Arranged for String Quartet and Piano by Paul Cassidy
Robert Schumann (1810 – 1856)
[9] Sehr langsam
No. 30 from Album für die Jugend, Op. 68
for Piano
Arranged for String Quartet by Paul Cassidy
Fritz Kreisler (1875 – 1962)
[10] Caprice viennois, Op. 2†
for Violin and Piano
Arranged for String Quartet and Viola by Paul Cassidy
Felix Mendelssohn (1809 – 1847)
[11] On Wings of Song
(‘Auf Flügeln des Gesanges’)
No. 2 from Sechs Gesänge, Op. 34
for Voice and Piano
Arranged for String Quartet by Paul Cassidy
Leopold Godowsky (1870 – 1938)
[12] Alt-Wien
No. 11 from Triakontameron
for Piano
Arranged for String Quartet by Paul Cassidy
Robert Schumann
[13] Von fremden Ländern und Menschen‡
No. 1 from Kinderszenen, Op. 15
for Piano
Arranged for String Quartet and Piano by Paul Cassidy
[14] Curiose Geschichte‡
No. 2 from Kinderszenen, Op. 15
for Piano
Arranged for String Quartet and Piano by Paul Cassidy
[15] Träumerei‡
No. 7 from Kinderszenen, Op. 15
for Piano
Arranged for String Quartet and Piano by Paul Cassidy
Maurice Ravel (1875 – 1937)
[16] Waltz No. 6
from Valses nobles et sentimentales
for Piano
Arranged for String Quartet by Paul Cassidy
[17] Blues
Second movement from Sonata in G major for Violin and Piano
Arranged for String Quartet by Andrew Haveron
Sergey Sergeyevich Prokofiev (1891 – 1953)
[18] March
from The Love for Three Oranges, Op. 33
Arranged for String Quartet by Andrew Haveron
Dmitri Shostakovich (1906 – 1975)
[19] Prelude
from Five Duets for Two Violins and Piano
Edited by Konstantin Fortunatov (1915 – 1996)
Arranged for String Quartet by Ian Belton
[20] Waltz No. 2‡
No. 7 from Suite for Variety Orchestra
Edited by Levon Atovmian (1901 – 1973)
Arranged for String Quartet and Piano by Jacqueline Thomas
Achille-Claude Debussy (1862 – 1918)
[21] Beau soir
for Voice and Piano
Arranged for String Quartet by Paul Cassidy
Исполнители:
Robert Smissen viola†
Philip Edward Fisher piano‡
Brodsky Quartet
Daniel Rowland violin
Ian Belton violin
Paul Cassidy viola
Jacqueline Thomas cello

Лог создания рипа

Exact Audio Copy V1.0 beta 3 from 29. August 2011
EAC extraction logfile from 21. December 2014, 22:20
Brodsky Quartet / Brodsky Quartet - Favourite Encores
Used drive : HL-DT-STDVDRAM GU70N Adapter: 0 ID: 0
Read mode : Secure
Utilize accurate stream : Yes
Defeat audio cache : Yes
Make use of C2 pointers : No
Read offset correction : 48
Overread into Lead-In and Lead-Out : No
Fill up missing offset samples with silence : Yes
Delete leading and trailing silent blocks : No
Null samples used in CRC calculations : Yes
Used interface : Native Win32 interface for Win NT & 2000
Used output format : User Defined Encoder
Selected bitrate : 128 kBit/s
Quality : High
Add ID3 tag : No
Command line compressor : C:\Program Files (x86)\Exact Audio Copy\Flac\flac.exe
Additional command line options : -V -8 -T "Date=%year%" -T "Genre=%genre%" %source%
TOC of the extracted CD
Track | Start | Length | Start sector | End sector
---------------------------------------------------------
1 | 0:00.00 | 4:48.33 | 0 | 21632
2 | 4:48.33 | 1:17.55 | 21633 | 27462
3 | 6:06.13 | 3:20.65 | 27463 | 42527
4 | 9:27.03 | 3:41.60 | 42528 | 59162
5 | 13:08.63 | 3:12.32 | 59163 | 73594
6 | 16:21.20 | 4:10.43 | 73595 | 92387
7 | 20:31.63 | 4:15.27 | 92388 | 111539
8 | 24:47.15 | 3:25.23 | 111540 | 126937
9 | 28:12.38 | 3:18.00 | 126938 | 141787
10 | 31:30.38 | 4:22.50 | 141788 | 161487
11 | 35:53.13 | 3:41.15 | 161488 | 178077
12 | 39:34.28 | 2:45.20 | 178078 | 190472
13 | 42:19.48 | 1:56.45 | 190473 | 199217
14 | 44:16.18 | 1:15.48 | 199218 | 204890
15 | 45:31.66 | 3:05.24 | 204891 | 218789
16 | 48:37.15 | 0:48.62 | 218790 | 222451
17 | 49:26.02 | 5:29.61 | 222452 | 247187
18 | 54:55.63 | 1:42.58 | 247188 | 254895
19 | 56:38.46 | 2:49.67 | 254896 | 267637
20 | 59:28.38 | 3:36.00 | 267638 | 283837
21 | 63:04.38 | 2:58.37 | 283838 | 297224
Range status and errors
Selected range
Filename C:\temp\CHAN_10708 - Brodsky Quartet - Favourite Encores\Brodsky Quartet - Favourite Encores.wav
Peak level 99.4 %
Extraction speed 2.1 X
Range quality 100.0 %
Test CRC F138BEFE
Copy CRC F138BEFE
Copy OK
No errors occurred
AccurateRip summary
Track 1 accurately ripped (confidence 4) [D3E82BA0] (AR v2)
Track 2 accurately ripped (confidence 4) [8B4A76A6] (AR v2)
Track 3 accurately ripped (confidence 4) [4A4F0EA2] (AR v2)
Track 4 accurately ripped (confidence 4) [922EC2F7] (AR v2)
Track 5 accurately ripped (confidence 4) [5CAD2AE2] (AR v2)
Track 6 accurately ripped (confidence 4) [4494B8C0] (AR v2)
Track 7 accurately ripped (confidence 4) [63692C1D] (AR v2)
Track 8 accurately ripped (confidence 4) [5318A622] (AR v2)
Track 9 accurately ripped (confidence 4) [8BF5323B] (AR v2)
Track 10 accurately ripped (confidence 4) [CC9C697E] (AR v2)
Track 11 accurately ripped (confidence 4) [864BC8CA] (AR v2)
Track 12 accurately ripped (confidence 4) [6DDD077E] (AR v2)
Track 13 accurately ripped (confidence 4) [68B46F48] (AR v2)
Track 14 accurately ripped (confidence 4) [A38A1D79] (AR v2)
Track 15 accurately ripped (confidence 4) [CF22E8FD] (AR v2)
Track 16 accurately ripped (confidence 4) [3A2262BD] (AR v2)
Track 17 accurately ripped (confidence 4) [61A48C04] (AR v2)
Track 18 accurately ripped (confidence 4) [E162B2F0] (AR v2)
Track 19 accurately ripped (confidence 4) [197CE932] (AR v2)
Track 20 accurately ripped (confidence 4) [3D9804FE] (AR v2)
Track 21 accurately ripped (confidence 4) [159176D5] (AR v2)
All tracks accurately ripped
End of status report
==== Log checksum 6CFD132FB08201B3430236D0EEB0DE2F9CBDB1BB2DDE81BB026927FC0B60D026 ====



Показать сообщения:    

Текущее время: 08-Дек 17:24

Часовой пояс: UTC + 3


Вы не можете начинать темы
Вы не можете отвечать на сообщения
Вы не можете редактировать свои сообщения
Вы не можете удалять свои сообщения
Вы не можете голосовать в опросах
Вы не можете прикреплять файлы к сообщениям
Вы не можете скачивать файлы