(Classical) [LP] [24/48] Madrigal - Thousand Years Of Music - England.Renaissance - 1982, FLAC (tracks+.cue)


Статистика раздачи [Обновить пиров]
Размер:  513 MB   |    Зарегистрирован:  8 месяцев 15 дней   |    Скачан:  0 раз

Полного источника не было: Никогда

Личеров:  3  [  0 KB/s  ]   Подробная статистика пиров
 
   
 
 
 

[Цитировать]

Madrigal - Thousand Years Of Music - England.Renaissance
Жанр: Classical
Носитель: LP
Год выпуска: 1982
Лейбл: Melodya (MOZG)
Страна-производитель: USSR
Аудио кодек: FLAC
Тип рипа: tracks+.cue
Формат записи: 32/192
Формат раздачи: 24/48
Продолжительность: 48.25 min
Треклист:
Side One:
John Dowland (1563-1626)
01. Come away,come sweet love
02. Gaillard
03. Gigue
04. I Saw My Lady Weep
05. Lachrimae antiquae
06. Lachrimae novae
07. Lachrimae gementes
08. Lachrimae tristes
09. Lachrimae coactae
10. Lachrimae amantis
11. Lachrimae verae
Side Two:
Four Carols (Anonymous (PBT....))
12. Alleluia, a newe Work
13. There is no Rose
14. Nowell sing we
15. O Blessed Lord
Thomas Weelkes (1575-1623)
16. Hark all ye lovely saints
William Cornyshe (1465-1523)
17. Ah Robin
Michael Cavendish (1565-1628)
18. Wand'ring in this place
Thomas Morley (1557-1603)
19. I goe before my darling
20. About the Maypole new
The "Madrigal" Old Music Ensemble
Artistic Director Lidia Davidova
Источник оцифровки: автором раздачи
Код класса состояния винила: NM
Устройство воспроизведения: Электроника ЭП 017С
Головка звукоснимателя: Audio-Technica AT95
Предварительный усилитель: Бриг-001
АЦП: VIA HD audio device
Программа-оцифровщик: Izotope RX 4 Advanced
Обработка: Manual

Спектр+АЧХ+Уровень записи

DR=12

foobar2000 1.1.10 / Dynamic Range Meter 1.1.1
log date: 2014-12-22 22:23:31
--------------------------------------------------------------------------------
Analyzed: Madrigal / Thousand Years Of Music - England.Renaissance
--------------------------------------------------------------------------------
DR Peak RMS Duration Track
--------------------------------------------------------------------------------
DR13 -1.62 dB -23.91 dB 3:15 ?-Come away,come sweet love
DR12 -10.26 dB -26.21 dB 1:26 ?-Gaillard
DR13 -9.82 dB -26.29 dB 1:42 ?-Gigue
DR11 -3.74 dB -19.28 dB 3:01 ?-I Saw My Lady Weep
DR11 -5.95 dB -20.91 dB 2:08 ?-Lachrimae antiquae
DR11 -5.93 dB -21.27 dB 2:11 ?-Lachrimae novae
DR12 -5.48 dB -22.19 dB 2:12 ?-Lachrimae gementes
DR12 -5.65 dB -21.97 dB 2:38 ?-Lachrimae tristes
DR10 -4.29 dB -18.35 dB 1:59 ?-Lachrimae coactae
DR11 -4.99 dB -20.05 dB 2:32 ?-Lachrimae amantis
DR10 -4.69 dB -19.64 dB 2:20 ?-Lachrimae verae
DR12 -4.43 dB -22.20 dB 4:15 ?-Alleluia, a newe Work
DR11 -1.84 dB -18.45 dB 2:56 ?-There is no Rose
DR14 -1.79 dB -20.61 dB 1:31 ?-Nowell sing we
DR14 -3.46 dB -22.94 dB 4:46 ?-O Blessed Lord
DR13 -3.37 dB -22.21 dB 1:37 ?-Hark all ye lovely saints
DR13 -2.04 dB -21.22 dB 2:00 ?-Ah Robin
DR12 -2.79 dB -20.07 dB 2:44 ?-Wand'ring in this place
DR12 -13.65 dB -30.35 dB 1:27 ?-I goe before my darling
DR14 -0.63 dB -19.09 dB 1:44 ?-About the Maypole new
--------------------------------------------------------------------------------
Number of tracks: 20
Official DR value: DR12
Samplerate: 48000 Hz
Channels: 2
Bits per sample: 24
Bitrate: 1434 kbps
Codec: FLAC
================================================================================

Back & Disc



[teatrix.ru].t19866.torrent 
Торрент: Зарегистрирован [ 2016-03-19 00:23 ] · DD25D7D086AC76820E04A56114CE76B459F0CC1A

Скачать .torrent

Скачать

12 KB

Статус: проверено
Скачан: 0 раз
Размер: 513 MB
terms.php



Быстрый ответ

Имя:

      
Для отправки сообщений необходимо включить JavaScript
Показать сообщения:    

Текущее время: 03-Дек 03:22

Часовой пояс: UTC + 3


Вы можете начинать темы
Вы можете отвечать на сообщения
Вы не можете редактировать свои сообщения
Вы не можете удалять свои сообщения
Вы не можете голосовать в опросах
Вы не можете прикреплять файлы к сообщениям
Вы можете скачивать файлы