(A Cappella) King's Singers - Christmas - 2003, FLAC (tracks+.cue), lossless


 

[Цитировать]

King's Singers - Christmas
Жанр: A Cappella
Страна-производитель диска: Великобритания
Год издания диска: 2003
Издатель (лейбл): Signum Records
Номер по каталогу: SIGCD502
Аудиокодек: FLAC
Тип рипа: tracks+.cue
Битрейт аудио: lossless
Продолжительность: 70:48
Источник (релизер): Daess (what)
Наличие сканов в содержимом раздачи: да
Треклист:
01. Veni, veni Emmanuel (Trad. arr. Lawson) - 3:06
02. Angelus ad Virginem (Trad. ed. The KS) - 1:59
03. This is the truth sent from above (Trad. arr. Ralph Vaughan Williams) - 2:40
04. Wie schon leuchtet der Morgenstern (Praetorius) - 1:47
05. Es ist ein Ros' entsprungen (Praetorius) - 2:44
06. There is no rose (Anon. ed. Stevens) - 2:26
07. Coventry Carol (Anon.) - 2:45
08. Nowell sing we now (Bo Holten ed. The KS) - 3:54
09. Remember, O thou man (Ravenscroft) - 3:10
10. In dulci jubilo (Trad. harm. J.S.Bach) - 0:56
11. Lullay my liking (Philip Lawson) - 4:27
12. Bogoroditsye Dyevo (Arvo Part) - 1:05
13. The Lamb (John Tavener) - 3:24
14. Maria durch ein Dornwald ging (Trad. arr. Lawson) - 3:41
15. O little one sweet (Trad. harm. J.S.Bach) - 2:13
16. Bethlehem Down (Peter Warlock) - 3:59
17. The Crown of Roses (Tchaikovsky arr. Lubbock) - 3:12
18. To us in Bethlem City (John McCabe) - 2:48
19. Szczo to za prediwo (Trad. arr. Barwinski) - 2:23
20. There is a flower (John Rutter) - 3:55
21. La Peregrinacion (Ramirez arr. Knight) - 3:10
22. Away in a manger (Melody W.J.Kirkpatrick arr. Lawson) - 2:33
23. Noel nouvelet (Trad. arr. Lawson) - 2:24
24. Stille Nacht (Gruber arr. Rutter) - 3:18
25. Born on a New Day (David arr. Knight/Lawson) - 2:49
Исполнители:
The King's Singers:
David Hurley, Robin Tyson - countertenor
Paul Phoenix - tenor
Gabriel Crouch, Philip Lawson - baritone
Stephen Connolly - bass

Лог создания рипа

Exact Audio Copy V0.99 prebeta 5 from 4. May 2009
EAC extraction logfile from 22. November 2009, 1:21
The King's Singers / Christmas
Used drive : TSSTcorpCDDVDW SH-S203P Adapter: 3 ID: 1
Read mode : Secure
Utilize accurate stream : Yes
Defeat audio cache : Yes
Make use of C2 pointers : No
Read offset correction : 6
Overread into Lead-In and Lead-Out : No
Fill up missing offset samples with silence : Yes
Delete leading and trailing silent blocks : No
Null samples used in CRC calculations : Yes
Used interface : Native Win32 interface for Win NT & 2000
Gap handling : Appended to previous track
Used output format : User Defined Encoder
Selected bitrate : 128 kBit/s
Quality : High
Add ID3 tag : No
Command line compressor : C:\Program Files\FLAC\flac.exe
Additional command line options : -V -8 -T "artist=%a" -T "title=%t" -T "album=%g" -T "date=%y" -T "tracknumber=%n" -T "genre=%m" %s
TOC of the extracted CD
Track | Start | Length | Start sector | End sector
---------------------------------------------------------
1 | 0:00.00 | 3:05.73 | 0 | 13947
2 | 3:05.73 | 1:58.61 | 13948 | 22858
3 | 5:04.59 | 2:39.62 | 22859 | 34845
4 | 7:44.46 | 1:46.42 | 34846 | 42837
5 | 9:31.13 | 2:44.11 | 42838 | 55148
6 | 12:15.24 | 2:25.44 | 55149 | 66067
7 | 14:40.68 | 2:45.12 | 66068 | 78454
8 | 17:26.05 | 3:53.74 | 78455 | 96003
9 | 21:20.04 | 3:10.25 | 96004 | 110278
10 | 24:30.29 | 0:56.04 | 110279 | 114482
11 | 25:26.33 | 4:27.31 | 114483 | 134538
12 | 29:53.64 | 1:04.49 | 134539 | 139387
13 | 30:58.38 | 3:23.65 | 139388 | 154677
14 | 34:22.28 | 3:40.61 | 154678 | 171238
15 | 38:03.14 | 2:12.72 | 171239 | 181210
16 | 40:16.11 | 3:59.19 | 181211 | 199154
17 | 44:15.30 | 3:12.07 | 199155 | 213561
18 | 47:27.37 | 2:48.37 | 213562 | 226198
19 | 50:15.74 | 2:23.27 | 226199 | 236950
20 | 52:39.26 | 3:54.42 | 236951 | 254542
21 | 56:33.68 | 3:09.43 | 254543 | 268760
22 | 59:43.36 | 2:33.16 | 268761 | 280251
23 | 62:16.52 | 2:23.74 | 280252 | 291050
24 | 64:40.51 | 3:17.62 | 291051 | 305887
25 | 67:58.38 | 2:49.10 | 305888 | 318572
Track 1
Filename E:\temp\The King's Singers\2003 - Christmas\01. Veni, veni Emmanuel.wav
Pre-gap length 0:00:02.00
Peak level 66.8 %
Track quality 99.9 %
Test CRC E438FCF7
Copy CRC E438FCF7
Cannot be verified as accurate (confidence 5) [3AC0FC83], AccurateRip returned [FE52E463]
Copy OK
Track 2
Filename E:\temp\The King's Singers\2003 - Christmas\02. Angelus ad Virginem.wav
Peak level 58.6 %
Track quality 100.0 %
Test CRC F2F5E47B
Copy CRC F2F5E47B
Cannot be verified as accurate (confidence 5) [F10330A8], AccurateRip returned [823C8694]
Copy OK
Track 3
Filename E:\temp\The King's Singers\2003 - Christmas\03. This is the truth sent from above.wav
Peak level 85.6 %
Track quality 100.0 %
Test CRC 758AE323
Copy CRC 758AE323
Cannot be verified as accurate (confidence 5) [EE10CEBA], AccurateRip returned [6DDB45EE]
Copy OK
Track 4
Filename E:\temp\The King's Singers\2003 - Christmas\04. Wie schцn leuchtet der Morgenstern.wav
Peak level 22.1 %
Track quality 99.9 %
Test CRC 61DA8709
Copy CRC 61DA8709
Cannot be verified as accurate (confidence 5) [CB89822D], AccurateRip returned [5569AC40]
Copy OK
Track 5
Filename E:\temp\The King's Singers\2003 - Christmas\05. Es ist ein Ros' entsprungen.wav
Peak level 30.6 %
Track quality 100.0 %
Test CRC A38E1F9D
Copy CRC A38E1F9D
Cannot be verified as accurate (confidence 5) [61E9C018], AccurateRip returned [65AEAB02]
Copy OK
Track 6
Filename E:\temp\The King's Singers\2003 - Christmas\06. Ther is no rose.wav
Peak level 34.9 %
Track quality 100.0 %
Test CRC 3DD7A161
Copy CRC 3DD7A161
Cannot be verified as accurate (confidence 5) [41EA0E19], AccurateRip returned [DA0F3C5B]
Copy OK
Track 7
Filename E:\temp\The King's Singers\2003 - Christmas\07. Coventry Carol.wav
Peak level 39.2 %
Track quality 100.0 %
Test CRC F77264DE
Copy CRC F77264DE
Cannot be verified as accurate (confidence 5) [EF6278DD], AccurateRip returned [BECFC95A]
Copy OK
Track 8
Filename E:\temp\The King's Singers\2003 - Christmas\08. Nowell sing we now.wav
Peak level 82.2 %
Track quality 100.0 %
Test CRC 50C77CBB
Copy CRC 50C77CBB
Cannot be verified as accurate (confidence 5) [4ED2CBE3], AccurateRip returned [C3B232A1]
Copy OK
Track 9
Filename E:\temp\The King's Singers\2003 - Christmas\09. Remember, O thou man.wav
Peak level 33.8 %
Track quality 100.0 %
Test CRC 3191EAA8
Copy CRC 3191EAA8
Cannot be verified as accurate (confidence 5) [03D67F34], AccurateRip returned [125477E0]
Copy OK
Track 10
Filename E:\temp\The King's Singers\2003 - Christmas\10. In dulci jubilo.wav
Peak level 42.6 %
Track quality 100.0 %
Test CRC D91C9DD6
Copy CRC D91C9DD6
Cannot be verified as accurate (confidence 5) [BB4951DE], AccurateRip returned [C06E2A8D]
Copy OK
Track 11
Filename E:\temp\The King's Singers\2003 - Christmas\11. Lullay my liking.wav
Peak level 97.8 %
Track quality 100.0 %
Test CRC E54ADE35
Copy CRC E54ADE35
Cannot be verified as accurate (confidence 5) [6BC6CEEA], AccurateRip returned [FCB96D57]
Copy OK
Track 12
Filename E:\temp\The King's Singers\2003 - Christmas\12. Bogoroditsye Dyevo.wav
Peak level 72.7 %
Track quality 100.0 %
Test CRC 3C8025F7
Copy CRC 3C8025F7
Cannot be verified as accurate (confidence 5) [F0575A46], AccurateRip returned [F68ECDF8]
Copy OK
Track 13
Filename E:\temp\The King's Singers\2003 - Christmas\13. The Lamb.wav
Peak level 21.9 %
Track quality 99.9 %
Test CRC 61EC9C54
Copy CRC 61EC9C54
Cannot be verified as accurate (confidence 5) [0B5FA17D], AccurateRip returned [EB276C69]
Copy OK
Track 14
Filename E:\temp\The King's Singers\2003 - Christmas\14. Maria durch ein' Dornwald ging.wav
Peak level 49.1 %
Track quality 99.9 %
Test CRC CD06125F
Copy CRC CD06125F
Cannot be verified as accurate (confidence 5) [C3F1A09D], AccurateRip returned [9C95B2B3]
Copy OK
Track 15
Filename E:\temp\The King's Singers\2003 - Christmas\15. O little one sweet.wav
Peak level 30.1 %
Track quality 100.0 %
Test CRC 144910BC
Copy CRC 144910BC
Cannot be verified as accurate (confidence 5) [C9A91774], AccurateRip returned [6F13FE1A]
Copy OK
Track 16
Filename E:\temp\The King's Singers\2003 - Christmas\16. Bethlehem Down.wav
Peak level 54.5 %
Track quality 100.0 %
Test CRC 1B98EEC4
Copy CRC 1B98EEC4
Cannot be verified as accurate (confidence 5) [1657102A], AccurateRip returned [FBAEAF8A]
Copy OK
Track 17
Filename E:\temp\The King's Singers\2003 - Christmas\17. The Crown of Roses.wav
Peak level 97.8 %
Track quality 100.0 %
Test CRC 39CB2724
Copy CRC 39CB2724
Cannot be verified as accurate (confidence 5) [3799AE73], AccurateRip returned [04B12BA7]
Copy OK
Track 18
Filename E:\temp\The King's Singers\2003 - Christmas\18. To us in Bethlem City.wav
Peak level 75.9 %
Track quality 100.0 %
Test CRC 590D134F
Copy CRC 590D134F
Cannot be verified as accurate (confidence 5) [80FF0A8D], AccurateRip returned [9A596F65]
Copy OK
Track 19
Filename E:\temp\The King's Singers\2003 - Christmas\19. Szczo to za prediwo.wav
Peak level 63.9 %
Track quality 100.0 %
Test CRC 50E971AE
Copy CRC 50E971AE
Cannot be verified as accurate (confidence 5) [910EAFFF], AccurateRip returned [F4199558]
Copy OK
Track 20
Filename E:\temp\The King's Singers\2003 - Christmas\20. There is a flower.wav
Pre-gap length 0:00:00.64
Peak level 57.2 %
Track quality 100.0 %
Test CRC 43EFC34B
Copy CRC 43EFC34B
Cannot be verified as accurate (confidence 5) [5BB89AC3], AccurateRip returned [DDD09782]
Copy OK
Track 21
Filename E:\temp\The King's Singers\2003 - Christmas\21. La Peregrinaзion.wav
Peak level 46.6 %
Track quality 99.9 %
Test CRC 88E1E843
Copy CRC 88E1E843
Cannot be verified as accurate (confidence 5) [FE2D0366], AccurateRip returned [C30C14A5]
Copy OK
Track 22
Filename E:\temp\The King's Singers\2003 - Christmas\22. Away in a manger.wav
Peak level 26.3 %
Track quality 100.0 %
Test CRC 8FF9F65C
Copy CRC 8FF9F65C
Cannot be verified as accurate (confidence 5) [002B0E44], AccurateRip returned [060B5FDC]
Copy OK
Track 23
Filename E:\temp\The King's Singers\2003 - Christmas\23. Noлl nouvelet.wav
Peak level 46.4 %
Track quality 100.0 %
Test CRC A0B0B55B
Copy CRC A0B0B55B
Cannot be verified as accurate (confidence 5) [BD56DE08], AccurateRip returned [2A36AEE0]
Copy OK
Track 24
Filename E:\temp\The King's Singers\2003 - Christmas\24. Stille Nacht.wav
Peak level 30.3 %
Track quality 100.0 %
Test CRC DB53D618
Copy CRC DB53D618
Cannot be verified as accurate (confidence 5) [60D626CB], AccurateRip returned [F5024D6B]
Copy OK
Track 25
Filename E:\temp\The King's Singers\2003 - Christmas\25. Born on a New Day.wav
Peak level 97.8 %
Track quality 100.0 %
Test CRC 84A583B0
Copy CRC 84A583B0
Cannot be verified as accurate (confidence 5) [253705AD], AccurateRip returned [59A0C744]
Copy OK
No tracks could be verified as accurate
You may have a different pressing from the one(s) in the database
No errors occurred
End of status report

Содержание индексной карты (.CUE)

REM GENRE Christmas
REM DATE 2003
REM DISCID 87109719
REM COMMENT "ExactAudioCopy v0.99pb5"
PERFORMER "King's Singers"
TITLE "Christmas"
FILE "01 - Veni, veni Emmanuel.wav" WAVE
TRACK 01 AUDIO
TITLE "Veni, veni Emmanuel"
PERFORMER "King's Singers"
INDEX 01 00:00:00
FILE "02 - Angelus ad Virginem.wav" WAVE
TRACK 02 AUDIO
TITLE "Angelus ad Virginem"
PERFORMER "King's Singers"
INDEX 01 00:00:00
FILE "03 - This is the truth sent from above.wav" WAVE
TRACK 03 AUDIO
TITLE "This is the truth sent from above"
PERFORMER "King's Singers"
INDEX 01 00:00:00
FILE "04 - Wie schon leuchtet der Morgenstern.wav" WAVE
TRACK 04 AUDIO
TITLE "Wie schon leuchtet der Morgenstern"
PERFORMER "King's Singers"
INDEX 01 00:00:00
FILE "05 - Es ist ein Ros' entsprungen.wav" WAVE
TRACK 05 AUDIO
TITLE "Es ist ein Ros' entsprungen"
PERFORMER "King's Singers"
INDEX 01 00:00:00
FILE "06 - There is no rose.wav" WAVE
TRACK 06 AUDIO
TITLE "There is no rose"
PERFORMER "King's Singers"
INDEX 01 00:00:00
FILE "07 - Coventry Carol.wav" WAVE
TRACK 07 AUDIO
TITLE "Coventry Carol"
PERFORMER "King's Singers"
INDEX 01 00:00:00
FILE "08 - Nowell sing we now.wav" WAVE
TRACK 08 AUDIO
TITLE "Nowell sing we now"
PERFORMER "King's Singers"
INDEX 01 00:00:00
FILE "09 - Remember, O thou man.wav" WAVE
TRACK 09 AUDIO
TITLE "Remember, O thou man"
PERFORMER "King's Singers"
INDEX 01 00:00:00
FILE "10 - In dulci jubilo.wav" WAVE
TRACK 10 AUDIO
TITLE "In dulci jubilo"
PERFORMER "King's Singers"
INDEX 01 00:00:00
FILE "11 - Lullay my liking.wav" WAVE
TRACK 11 AUDIO
TITLE "Lullay my liking"
PERFORMER "King's Singers"
INDEX 01 00:00:00
FILE "12 - Bogoroditsye Dyevo.wav" WAVE
TRACK 12 AUDIO
TITLE "Bogoroditsye Dyevo"
PERFORMER "King's Singers"
INDEX 01 00:00:00
FILE "13 - The Lamb.wav" WAVE
TRACK 13 AUDIO
TITLE "The Lamb"
PERFORMER "King's Singers"
INDEX 01 00:00:00
FILE "14 - Maria durch ein Dornwald ging.wav" WAVE
TRACK 14 AUDIO
TITLE "Maria durch ein Dornwald ging"
PERFORMER "King's Singers"
INDEX 01 00:00:00
FILE "15 - O little one sweet.wav" WAVE
TRACK 15 AUDIO
TITLE "O little one sweet"
PERFORMER "King's Singers"
INDEX 01 00:00:00
FILE "16 - Bethlehem Down.wav" WAVE
TRACK 16 AUDIO
TITLE "Bethlehem Down"
PERFORMER "King's Singers"
INDEX 01 00:00:00
FILE "17 - The Crown of Roses.wav" WAVE
TRACK 17 AUDIO
TITLE "The Crown of Roses"
PERFORMER "King's Singers"
INDEX 01 00:00:00
FILE "18 - To us in Bethlem City.wav" WAVE
TRACK 18 AUDIO
TITLE "To us in Bethlem City"
PERFORMER "King's Singers"
INDEX 01 00:00:00
FILE "19 - Szczo to za prediwo.wav" WAVE
TRACK 19 AUDIO
TITLE "Szczo to za prediwo"
PERFORMER "King's Singers"
INDEX 01 00:00:00
TRACK 20 AUDIO
TITLE "There is a flower"
PERFORMER "King's Singers"
INDEX 00 02:22:54
FILE "20 - There is a flower.wav" WAVE
INDEX 01 00:00:00
FILE "21 - La Peregrinacion.wav" WAVE
TRACK 21 AUDIO
TITLE "La Peregrinacion"
PERFORMER "King's Singers"
INDEX 01 00:00:00
FILE "22 - Away in a manger.wav" WAVE
TRACK 22 AUDIO
TITLE "Away in a manger"
PERFORMER "King's Singers"
INDEX 01 00:00:00
FILE "23 - Noel nouvelet.wav" WAVE
TRACK 23 AUDIO
TITLE "Noel nouvelet"
PERFORMER "King's Singers"
INDEX 01 00:00:00
FILE "24 - Stille Nacht.wav" WAVE
TRACK 24 AUDIO
TITLE "Stille Nacht"
PERFORMER "King's Singers"
INDEX 01 00:00:00
FILE "25 - Born on a New Day.wav" WAVE
TRACK 25 AUDIO
TITLE "Born on a New Day"
PERFORMER "King's Singers"
INDEX 01 00:00:00

Отчет CUETools

[CUETools log; Date: 24.12.2014 2:24:26; Version: 2.1.5]
[CTDB TOCID: OuRjugBhPCAPobfbB.AV1MKmIOk-] found.
Track | CTDB Status
1 | (15/15) Accurately ripped
2 | (15/15) Accurately ripped
3 | (14/15) Accurately ripped
4 | (14/15) Accurately ripped
5 | (15/15) Accurately ripped
6 | (15/15) Accurately ripped
7 | (15/15) Accurately ripped
8 | (15/15) Accurately ripped
9 | (15/15) Accurately ripped
10 | (15/15) Accurately ripped
11 | (15/15) Accurately ripped
12 | (15/15) Accurately ripped
13 | (15/15) Accurately ripped
14 | (15/15) Accurately ripped
15 | (15/15) Accurately ripped
16 | (15/15) Accurately ripped
17 | (15/15) Accurately ripped
18 | (15/15) Accurately ripped
19 | (15/15) Accurately ripped
20 | (15/15) Accurately ripped
21 | (15/15) Accurately ripped
22 | (15/15) Accurately ripped
23 | (14/15) Accurately ripped
24 | (14/15) Accurately ripped
25 | (14/15) Accurately ripped
[AccurateRip ID: 003d33a7-045a8c21-87109719] found.
Track [ CRC | V2 ] Status
01 [3ac0fc83|f3364da8] (00+00/28) No match
02 [f10330a8|1f31e741] (00+00/28) No match
03 [ee10ceba|f176403b] (00+00/28) No match
04 [cb89822d|d77a25c1] (00+00/28) No match
05 [61e9c018|43f31de1] (00+00/27) No match
06 [41ea0e19|cbdb8eb1] (00+00/28) No match
07 [ef6278dd|6362a23f] (00+00/28) No match
08 [4ed2cbe3|42984efc] (00+00/27) No match
09 [03d67f34|4871c53c] (00+00/27) No match
10 [bb4951de|2bb74468] (00+00/28) No match
11 [6bc6ceea|23fe491f] (00+00/28) No match
12 [f0575a46|0f51eb52] (00+00/28) No match
13 [0b5fa17d|8435ecd4] (00+00/28) No match
14 [c3f1a09d|8af47855] (00+00/27) No match
15 [c9a91774|90dae380] (00+00/27) No match
16 [1657102a|f8bc46cb] (00+00/28) No match
17 [3799ae73|33ee2d75] (00+00/28) No match
18 [80ff0a8d|1e7ffe7c] (00+00/27) No match
19 [910eafff|22e90e7f] (00+00/28) No match
20 [5bb89ac3|cbdf1595] (00+00/27) No match
21 [fe2d0366|2bf74839] (00+00/27) No match
22 [002b0e44|1dd48689] (00+00/28) No match
23 [bd56de08|c2500783] (00+00/26) No match
24 [60d626cb|093d5950] (00+00/28) No match
25 [253705ad|5f25e25a] (00+00/28) No match
Offsetted by -24:
01 [267098fb] (02/28) Accurately ripped
02 [5dd3728a] (02/28) Accurately ripped
03 [0e36fd48] (02/28) Accurately ripped
04 [939cf02b] (02/28) Accurately ripped
05 [67fe1034] (02/27) Accurately ripped
06 [16363f88] (02/28) Accurately ripped
07 [023e1e78] (02/28) Accurately ripped
08 [add8a74c] (02/27) Accurately ripped
09 [79825eac] (02/27) Accurately ripped
10 [5d864d79] (02/28) Accurately ripped
11 [cecb2353] (02/28) Accurately ripped
12 [93ed285a] (02/28) Accurately ripped
13 [18d91f3e] (02/28) Accurately ripped
14 [bac97c89] (02/27) Accurately ripped
15 [55f3d270] (02/27) Accurately ripped
16 [dba9faec] (02/28) Accurately ripped
17 [c9f12de2] (02/28) Accurately ripped
18 [f8fd0886] (02/27) Accurately ripped
19 [51285ebf] (02/28) Accurately ripped
20 [723456d8] (02/27) Accurately ripped
21 [0bafffb1] (02/27) Accurately ripped
22 [b75a966e] (02/28) Accurately ripped
23 [6f4aef3e] (02/26) Accurately ripped
24 [71f89750] (02/28) Accurately ripped
25 [d6e1fa5c] (02/28) Accurately ripped
Offsetted by -6:
01 [fe52e463] (09/28) Accurately ripped
02 [823c8694] (09/28) Accurately ripped
03 [6ddb45ee] (09/28) Accurately ripped
04 [5569ac40] (09/28) Accurately ripped
05 [65aeab02] (08/27) Accurately ripped
06 [da0f3c5b] (09/28) Accurately ripped
07 [becfc95a] (09/28) Accurately ripped
08 [c3b232a1] (08/27) Accurately ripped
09 [125477e0] (08/27) Accurately ripped
10 [c06e2a8d] (09/28) Accurately ripped
11 [fcb96d57] (09/28) Accurately ripped
12 [f68ecdf8] (09/28) Accurately ripped
13 [eb276c69] (09/28) Accurately ripped
14 [9c95b2b3] (08/27) Accurately ripped
15 [6f13fe1a] (08/27) Accurately ripped
16 [fbaeaf8a] (09/28) Accurately ripped
17 [04b12ba7] (09/28) Accurately ripped
18 [9a596f65] (08/27) Accurately ripped
19 [f4199558] (09/28) Accurately ripped
20 [ddd09782] (09/27) Accurately ripped
21 [c30c14a5] (08/27) Accurately ripped
22 [060b5fdc] (09/28) Accurately ripped
23 [2a36aee0] (07/26) Accurately ripped
24 [f5024d6b] (09/28) Accurately ripped
25 [59a0c744] (09/28) Accurately ripped
Offsetted by 6:
01 [2d4b5c79] (03/28) Accurately ripped
02 [3fde55d3] (03/28) Accurately ripped
03 [a058a4c7] (03/28) Accurately ripped
04 [6d01ce1a] (03/28) Accurately ripped
05 [4cceef7c] (03/27) Accurately ripped
06 [7a1b666f] (03/28) Accurately ripped
07 [8fa5912e] (03/28) Accurately ripped
08 [8afcd787] (03/27) Accurately ripped
09 [081a862d] (03/27) Accurately ripped
10 [57604336] (03/28) Accurately ripped
11 [27979a54] (03/28) Accurately ripped
12 [6d606391] (03/28) Accurately ripped
13 [6b742130] (03/28) Accurately ripped
14 [6ec67e68] (03/27) Accurately ripped
15 [d80c9e6d] (03/27) Accurately ripped
16 [42d4663b] (03/28) Accurately ripped
17 [4fc9b401] (03/28) Accurately ripped
18 [dfb13ae9] (03/27) Accurately ripped
19 [cf11c78c] (03/28) Accurately ripped
20 [408e9a9c] (02/27) Accurately ripped
21 [24710572] (03/27) Accurately ripped
22 [61482149] (03/28) Accurately ripped
23 [53b313b9] (03/26) Accurately ripped
24 [45b5ce87] (03/28) Accurately ripped
25 [ead0409d] (03/28) Accurately ripped
Track Peak [ CRC32 ] [W/O NULL] [ LOG ]
-- 97,8 [05C712F0] [9A8880BD]
01 66,8 [E438FCF7] [8685BF3F] CRC32
02 58,6 [F2F5E47B] [EAE25686] CRC32
03 85,6 [758AE323] [DB33D8A6] CRC32
04 22,1 [61DA8709] [5D376534] CRC32
05 30,6 [A38E1F9D] [05380568] CRC32
06 34,9 [3DD7A161] [5AB11F26] CRC32
07 39,2 [F77264DE] [A0B99091] CRC32
08 82,2 [50C77CBB] [F5D1959C] CRC32
09 33,8 [3191EAA8] [1D1DE98B] CRC32
10 42,6 [D91C9DD6] [4B671392] CRC32
11 97,8 [E54ADE35] [7BBD79DF] CRC32
12 72,7 [3C8025F7] [A84CE682] CRC32
13 21,9 [61EC9C54] [64E22AA4] CRC32
14 49,1 [CD06125F] [17429F54] CRC32
15 30,1 [144910BC] [21F818AF] CRC32
16 54,5 [1B98EEC4] [D137B649] CRC32
17 97,8 [39CB2724] [C1CCDDDF] CRC32
18 75,9 [590D134F] [F5D0234E] CRC32
19 63,9 [50E971AE] [73CFA0A8] CRC32
20 57,2 [43EFC34B] [A9373EBF] CRC32
21 46,6 [88E1E843] [CC93502A] CRC32
22 26,3 [8FF9F65C] [5AC0967C] CRC32
23 46,4 [A0B0B55B] [D4C2FEBF] CRC32
24 30,3 [DB53D618] [2707AD45] CRC32
25 97,8 [84A583B0] [80B0D1DC] CRC32

Об альбоме (сборнике)

Signum Records is delighted to release The King's Singers debut album on the Signum label.
King’s Singers Christmas comprises 24 carols for each day of Advent, and a bonus 25th track which pays homage to one of their famous songs. Featured on the disc are such celebrated carols as Away in a Manger, specially arranged for the group and other traditional carols performed in their original versions.
Even though nearly every piece on this disc could be heard in an English church carol service, the variety of musical styles covered is immense. Five centuries of music are represented here including works from various different countries.
"As a group that spends much of its life on the road, we are fortunate to be able to gather music from many cultures and traditions beyond our own" says Gabriel Crouch. "Several pieces collected on our travels have found their way onto this playlist, including La Peregrinaçion by the Argentinian Ariel Ramirez, and the Polish-Ukranian song Szczo to za Prediwo, which we first heard performed by a choir from Warsaw at a King’s Singers workshop".
In addition to the choice of traditional Christmas carols we have chosen pieces by Peter Warlock, John McCabe, John Rutter, Bo Holton and our own Philip Lawson, as representative of the living tradition amongst English institutions for commissioning new carols. A King’s Singers Christmas album would not be complete, however, without a little musical twist or two. These are delivered in the form of Tchaikovsky’s The Crown of Roses which has been arranged by the great jazz arranger Jeremy Lubbock and a new version with Christmas words by Philip Lawson of the perennial King’s Singer’s favourite You are the New Day, sung to the accompaniment of a String Quartet.



Показать сообщения:    

Текущее время: 08-Дек 10:51

Часовой пояс: UTC + 3


Вы не можете начинать темы
Вы не можете отвечать на сообщения
Вы не можете редактировать свои сообщения
Вы не можете удалять свои сообщения
Вы не можете голосовать в опросах
Вы не можете прикреплять файлы к сообщениям
Вы не можете скачивать файлы