(Classical, Contemporary, Vocal, Chamber, Lieder) Musik in Deutschland 1950-2000 - Solo und Klavier 1970-2000 - 2001, FLAC (image+.cue) lossless


 

[Цитировать]

Musik in Deutschland 1950-2000 - Solo und Klavier 1970-2000
Жанр: Classical, Contemporary, Vocal, Chamber, Lieder
Страна-производитель диска: EU
Год издания диска: 2001
Издатель (лейбл): BMG Ariola Classics
Номер по каталогу: 74321 73530 2
Дата записи: 1970-2000
Аудиокодек: FLAC
Тип рипа: image+.cue
Битрейт аудио: lossless
Продолжительность: 70'21''
Источник: avaxhome.com (basa005)
Наличие сканов в содержимом раздачи: да-См. также: Musik in Deutschland 1950-2000 - Solo und Klavier 1945-1970

Треклист и исполнители

Günter Bialas (1907-1995)
1-5. Haiku-Folge II - 3:41
Spyros Sakkas, Bariton. Georg Kouroupos, Klavier
Georg Katzer (1935)
6-8. Drei Heine-Lieder - 6:32
Claudia Barainsky, Sopran. Axel Bauni, Klavier
Friedrich Schenker (1942)
9. Leitfaden für angehende Speichellecker - 9:21
Roswitha Trexler, Sopran. Gerhard Erber, Klavier
Wolfgang Rihm (1952)
10-11. hölderlin-fragmente - 2:00
Christiane Iven, Mezzosopran. Thomas Grubmüller, Klavier
12-13. wölfli-liederbuch - 3:14
Richard Salter, Bariton. Bernhard Wambach, Klavier
Wilhelm Killmayer (1927)
14-15. Hölderlin-Lieder nach Gedichten der Spätzeit. II. Zyklus - 3:12
Christoph Prégardien, Tenor. Siegfried Mauser, Klavier
Reiner Bredemeyer (1929-1995)
16-20. Die Winterreise - 6:21
Christoph Biller, Bariton. Sebastian Weigle, Horn. Josef Christof, Klavier
Thomas Buchholz (1961)
21. Skizzenblatt - 1:53
Jana Reh, Gesang. Katja Reinbold, Flöte
Peter Ruzicka (1948)
22-23. Vier Gesänge nach Fragmenten von Nietzsche - 3:26
Christiane Iven, Mezzosopran. Thomas Grubmüller, Klavier
Aribert Reimann (1936)
24-28. Eingedunkelt - 8:23
Ursula Hesse, Mezzosopran
Detlev Müller-Siemens (1957)
29. Zwei Lieder nach Gedichten von Friedrich Hölderlin - 6:07
Julie Kaufmann, Sopran. Stefan Litwin, Klavier
Moritz Eggert (1965)
30-31. Neue Dichter Lieben - 4:22
Yaron Windmüller, Bariton. Moritz Eggert, Klavier
Matthias Pintscher (1971)
32. Lieder und Schneebilder - 2:29
Claudia Barainsky, Sopran. Axel Bauni, Klavier
André Werner (1960)
33-35. Jahnn-Lieder - 3:46
David Cordier, Countertenor. Alex Bauni, Klavier
Isabel Mundry (1963)
36-37. Anagramm von Unica Zürn - 10:57
Salome Kammer, Stimme. Michael Wendeberg, Klavier

Лог создания рипа

Exact Audio Copy V1.0 beta 2 from 29. April 2011
EAC extraction logfile from 10. November 2011, 16:31
Musik in Deutschland 1950-2000 / Solo und Klavier 1970-2000
Used drive : TSSTcorpCDDVDW SE-S204N Adapter: 2 ID: 0
Read mode : Secure
Utilize accurate stream : Yes
Defeat audio cache : Yes
Make use of C2 pointers : No
Read offset correction : 6
Overread into Lead-In and Lead-Out : No
Fill up missing offset samples with silence : Yes
Delete leading and trailing silent blocks : No
Null samples used in CRC calculations : No
Used interface : Native Win32 interface for Win NT & 2000
Used output format : Internal WAV Routines
Sample format : 44.100 Hz; 16 Bit; Stereo
TOC of the extracted CD
Track | Start | Length | Start sector | End sector
---------------------------------------------------------
1 | 0:00.00 | 0:40.17 | 0 | 3016
2 | 0:40.17 | 0:29.10 | 3017 | 5201
3 | 1:09.27 | 0:57.30 | 5202 | 9506
4 | 2:06.57 | 1:07.30 | 9507 | 14561
5 | 3:14.12 | 0:43.25 | 14562 | 17811
6 | 3:57.37 | 1:53.35 | 17812 | 26321
7 | 5:50.72 | 2:07.22 | 26322 | 35868
8 | 7:58.19 | 2:44.13 | 35869 | 48181
9 | 10:42.32 | 9:28.35 | 48182 | 90816
10 | 20:10.67 | 1:22.74 | 90817 | 97040
11 | 21:33.66 | 0:45.66 | 97041 | 100481
12 | 22:19.57 | 1:31.02 | 100482 | 107308
13 | 23:50.59 | 1:53.44 | 107309 | 115827
14 | 25:44.28 | 1:51.24 | 115828 | 124176
15 | 27:35.52 | 1:28.42 | 124177 | 130818
16 | 29:04.19 | 0:55.00 | 130819 | 134943
17 | 29:59.19 | 1:46.11 | 134944 | 142904
18 | 31:45.30 | 1:07.61 | 142905 | 147990
19 | 32:53.16 | 0:43.05 | 147991 | 151220
20 | 33:36.21 | 2:01.00 | 151221 | 160295
21 | 35:37.21 | 1:59.04 | 160296 | 169224
22 | 37:36.25 | 2:09.02 | 169225 | 178901
23 | 39:45.27 | 1:26.44 | 178902 | 185395
24 | 41:11.71 | 1:24.29 | 185396 | 191724
25 | 42:36.25 | 1:49.59 | 191725 | 199958
26 | 44:26.09 | 0:54.57 | 199959 | 204065
27 | 45:20.66 | 2:12.69 | 204066 | 214034
28 | 47:33.60 | 2:18.49 | 214035 | 224433
29 | 49:52.34 | 6:12.46 | 224434 | 252379
30 | 56:05.05 | 1:59.69 | 252380 | 261373
31 | 58:04.74 | 2:31.54 | 261374 | 272752
32 | 60:36.53 | 2:36.23 | 272753 | 284475
33 | 63:13.01 | 1:22.23 | 284476 | 290648
34 | 64:35.24 | 1:03.37 | 290649 | 295410
35 | 65:38.61 | 1:27.16 | 295411 | 301951
36 | 67:06.02 | 2:04.57 | 301952 | 311308
37 | 69:10.59 | 1:08.22 | 311309 | 316430
Range status and errors
Selected range
Filename C:\avaxhome\Musik in Deutschland 1950-2000 - Solo und Klavier 1970-2000.wav
Peak level 99.4 %
Extraction speed 8.0 X
Range quality 99.9 %
Copy CRC 67FEEF5E
Copy OK
No errors occurred
AccurateRip summary
Track 1 cannot be verified as accurate (confidence 1) [9A43E726], AccurateRip returned [4FDC188E] (AR v2)
Track 2 cannot be verified as accurate (confidence 1) [E90077B4], AccurateRip returned [06619469] (AR v2)
Track 3 cannot be verified as accurate (confidence 1) [4EBA26A1], AccurateRip returned [7AC58CD0] (AR v2)
Track 4 cannot be verified as accurate (confidence 1) [249A3E9C], AccurateRip returned [CDA0A6A2] (AR v2)
Track 5 cannot be verified as accurate (confidence 1) [C700E927], AccurateRip returned [3E9AB087] (AR v2)
Track 6 cannot be verified as accurate (confidence 1) [2F9D24FC], AccurateRip returned [A8CB60AA] (AR v2)
Track 7 cannot be verified as accurate (confidence 1) [AE2059B3], AccurateRip returned [D693E0B4] (AR v2)
Track 8 cannot be verified as accurate (confidence 1) [7F4FEF31], AccurateRip returned [3054731D] (AR v2)
Track 9 cannot be verified as accurate (confidence 1) [D46C5E57], AccurateRip returned [6F80DED0] (AR v2)
Track 10 cannot be verified as accurate (confidence 1) [C9A3965C], AccurateRip returned [9AB2EA48] (AR v2)
Track 11 cannot be verified as accurate (confidence 1) [24C336B6], AccurateRip returned [7E32172C] (AR v2)
Track 12 cannot be verified as accurate (confidence 1) [29595F3C], AccurateRip returned [197F38FD] (AR v2)
Track 13 cannot be verified as accurate (confidence 1) [8F7393F0], AccurateRip returned [2A361E1B] (AR v2)
Track 14 cannot be verified as accurate (confidence 1) [4777832C], AccurateRip returned [26B6383C] (AR v2)
Track 15 cannot be verified as accurate (confidence 1) [34D25AE5], AccurateRip returned [86E29006] (AR v2)
Track 16 cannot be verified as accurate (confidence 1) [36A08CA0], AccurateRip returned [D410309E] (AR v2)
Track 17 cannot be verified as accurate (confidence 1) [10968F85], AccurateRip returned [48A22BED] (AR v2)
Track 18 cannot be verified as accurate (confidence 1) [B17C0EE3], AccurateRip returned [58461739] (AR v2)
Track 19 cannot be verified as accurate (confidence 1) [8F2DD841], AccurateRip returned [BE655A43] (AR v2)
Track 20 cannot be verified as accurate (confidence 1) [DD665DEA], AccurateRip returned [A55374BA] (AR v2)
Track 21 cannot be verified as accurate (confidence 1) [1829DEBE], AccurateRip returned [574BBA42] (AR v2)
Track 22 cannot be verified as accurate (confidence 1) [54751711], AccurateRip returned [82D8514A] (AR v2)
Track 23 cannot be verified as accurate (confidence 1) [FB047B91], AccurateRip returned [7413C32D] (AR v2)
Track 24 cannot be verified as accurate (confidence 1) [5B922FBD], AccurateRip returned [C44DD526] (AR v2)
Track 25 cannot be verified as accurate (confidence 1) [4B9D1B41], AccurateRip returned [8E83FC58] (AR v2)
Track 26 cannot be verified as accurate (confidence 1) [E92D0203], AccurateRip returned [6A59D740] (AR v2)
Track 27 cannot be verified as accurate (confidence 1) [D7E566D1], AccurateRip returned [C2F6EF83] (AR v2)
Track 28 cannot be verified as accurate (confidence 1) [9F02C13C], AccurateRip returned [A8D47AF2] (AR v2)
Track 29 cannot be verified as accurate (confidence 1) [D814DB72], AccurateRip returned [51FA3684] (AR v2)
Track 30 cannot be verified as accurate (confidence 1) [6E62AA8A], AccurateRip returned [63897342] (AR v2)
Track 31 cannot be verified as accurate (confidence 1) [9F96BC50], AccurateRip returned [EE99DCCC] (AR v2)
Track 32 cannot be verified as accurate (confidence 1) [9193EC0B], AccurateRip returned [049764F8] (AR v2)
Track 33 cannot be verified as accurate (confidence 1) [EB567458], AccurateRip returned [F8AC4974] (AR v2)
Track 34 cannot be verified as accurate (confidence 1) [B3B423D2], AccurateRip returned [217C1A70] (AR v2)
Track 35 cannot be verified as accurate (confidence 1) [3400A1A8], AccurateRip returned [D38CD67E] (AR v2)
Track 36 cannot be verified as accurate (confidence 1) [2EB99BBC], AccurateRip returned [062C4D41] (AR v2)
Track 37 cannot be verified as accurate (confidence 1) [38B19415], AccurateRip returned [C4ED471D] (AR v2)
No tracks could be verified as accurate
You may have a different pressing from the one(s) in the database
End of status report
==== Log checksum 7CB732C7301B19EA4DEE27126F269B63BC10722104584D662C79371E1EBF102B ====

Содержание индексной карты (.CUE)

REM GENRE Avantgarde
REM DATE 2001
REM DISCID 38107B25
REM COMMENT "ExactAudioCopy v1.0b2"
PERFORMER "Musik in Deutschland 1950-2000"
TITLE "Solo und Klavier 1970-2000"
FILE "Musik in Deutschland 1950-2000 - Solo und Klavier 1970-2000.flac" WAVE
TRACK 01 AUDIO
TITLE "Gьnter Bialas - Haiku-Folge II (1971) - 6. Ja, Schnecke"
PERFORMER "Musik in Deutschland 1950-2000"
INDEX 01 00:00:00
TRACK 02 AUDIO
TITLE "Gьnter Bialas - Haiku-Folge II (1971) - 7. Aus dem Wege, Spatz"
PERFORMER "Musik in Deutschland 1950-2000"
INDEX 00 00:38:15
INDEX 01 00:40:17
TRACK 03 AUDIO
TITLE "Gьnter Bialas - Haiku-Folge II (1971) - 8. Jetzt komm"
PERFORMER "Musik in Deutschland 1950-2000"
INDEX 00 01:07:03
INDEX 01 01:09:27
TRACK 04 AUDIO
TITLE "Gьnter Bialas - Haiku-Folge II (1971) - 9. Mond und Blumen, ach"
PERFORMER "Musik in Deutschland 1950-2000"
INDEX 00 02:04:45
INDEX 01 02:06:57
TRACK 05 AUDIO
TITLE "Gьnter Bialas - Haiku-Folge II (1971) - 10. Ich hatte vor, nicht дlter zu werden"
PERFORMER "Musik in Deutschland 1950-2000"
INDEX 00 03:11:06
INDEX 01 03:14:12
TRACK 06 AUDIO
TITLE "Georg Katzer - Drei Heine-Lieder (1973) - 1. Eine alte Harfe"
PERFORMER "Musik in Deutschland 1950-2000"
INDEX 00 03:51:15
INDEX 01 03:57:37
TRACK 07 AUDIO
TITLE "Georg Katzer - Drei Heine-Lieder (1973) - 2. Das ist eine weiЯe Mцwe"
PERFORMER "Musik in Deutschland 1950-2000"
INDEX 00 05:48:13
INDEX 01 05:50:72
TRACK 08 AUDIO
TITLE "Georg Katzer - Drei Heine-Lieder (1973) - 3. Hymnus"
PERFORMER "Musik in Deutschland 1950-2000"
INDEX 00 07:54:14
INDEX 01 07:58:19
TRACK 09 AUDIO
TITLE "Friedrich Schenker - Leitfaden fьr angehende Speichellecker (1974)"
PERFORMER "Musik in Deutschland 1950-2000"
INDEX 00 10:36:03
INDEX 01 10:42:32
TRACK 10 AUDIO
TITLE "Wolfgang Rihm - hцlderlin-fragmente (1976-77) - 19. An meine Schwester"
PERFORMER "Musik in Deutschland 1950-2000"
INDEX 00 20:03:50
INDEX 01 20:10:67
TRACK 11 AUDIO
TITLE "Wolfgang Rihm - hцlderlin-fragmente (1976-77) - 4. Lied des Schweden"
PERFORMER "Musik in Deutschland 1950-2000"
INDEX 00 21:32:55
INDEX 01 21:33:66
TRACK 12 AUDIO
TITLE "Wolfgang Rihm - wцlfli-liederbuch (1980-81) - 1. Ich habe Dich, geliebet!"
PERFORMER "Musik in Deutschland 1950-2000"
INDEX 00 22:12:18
INDEX 01 22:19:57
TRACK 13 AUDIO
TITLE "Wolfgang Rihm - wцlfli-liederbuch (1980-81) - 3. Auf dieser Brьke, steht ein ..."
PERFORMER "Musik in Deutschland 1950-2000"
INDEX 00 23:47:30
INDEX 01 23:50:59
TRACK 14 AUDIO
TITLE "Wilhelm Killmayer - Hцlderlin-Lieder nach Gedichten der Spдtzeit (1983-87) - ..."
PERFORMER "Musik in Deutschland 1950-2000"
INDEX 00 25:36:48
INDEX 01 25:44:28
TRACK 15 AUDIO
TITLE "Wilhelm Killmayer - Hцlderlin-Lieder nach Gedichten der Spдtzeit (1983-87) - ..."
PERFORMER "Musik in Deutschland 1950-2000"
INDEX 01 27:35:52
TRACK 16 AUDIO
TITLE "Reiner Bredemeyer - Die Winterreise (1984) - 20. Die Nebensonnen"
PERFORMER "Musik in Deutschland 1950-2000"
INDEX 00 28:55:27
INDEX 01 29:04:19
TRACK 17 AUDIO
TITLE "Reiner Bredemeyer - Die Winterreise (1984) - 21. Frьhlingstraum"
PERFORMER "Musik in Deutschland 1950-2000"
INDEX 01 29:59:19
TRACK 18 AUDIO
TITLE "Reiner Bredemeyer - Die Winterreise (1984) - 22. Einsamkeit"
PERFORMER "Musik in Deutschland 1950-2000"
INDEX 00 31:45:29
INDEX 01 31:45:30
TRACK 19 AUDIO
TITLE "Reiner Bredemeyer - Die Winterreise (1984) - 23. Muth!"
PERFORMER "Musik in Deutschland 1950-2000"
INDEX 01 32:53:16
TRACK 20 AUDIO
TITLE "Reiner Bredemeyer - Die Winterreise (1984) - 24. Der Leiermann"
PERFORMER "Musik in Deutschland 1950-2000"
INDEX 00 33:32:53
INDEX 01 33:36:21
TRACK 21 AUDIO
TITLE "Thomas Buchholz - Skizzenblatt (1987) - 5. Mein Leben ist ein Skizzenblatt"
PERFORMER "Musik in Deutschland 1950-2000"
INDEX 00 35:29:39
INDEX 01 35:37:21
TRACK 22 AUDIO
TITLE "Peter Ruzicka - Vier Gesдnge nach Fragmenten von Nietzsche (1992) - 1. Die So..."
PERFORMER "Musik in Deutschland 1950-2000"
INDEX 00 37:30:51
INDEX 01 37:36:25
TRACK 23 AUDIO
TITLE "Peter Ruzicka - Vier Gesдnge nach Fragmenten von Nietzsche (1992) - 3. Hohl, ..."
PERFORMER "Musik in Deutschland 1950-2000"
INDEX 00 39:42:61
INDEX 01 39:45:27
TRACK 24 AUDIO
TITLE "Aribert Reimann - Eingedunkelt (1992) - 1. Wirfst Du"
PERFORMER "Musik in Deutschland 1950-2000"
INDEX 00 41:05:01
INDEX 01 41:11:71
TRACK 25 AUDIO
TITLE "Aribert Reimann - Eingedunkelt (1992) - 2. Deutlich, weiterhin das offne"
PERFORMER "Musik in Deutschland 1950-2000"
INDEX 00 42:34:32
INDEX 01 42:36:25
TRACK 26 AUDIO
TITLE "Aribert Reimann - Eingedunkelt (1992) - 3. Ьber die Kцpfe"
PERFORMER "Musik in Deutschland 1950-2000"
INDEX 00 44:22:24
INDEX 01 44:26:09
TRACK 27 AUDIO
TITLE "Aribert Reimann - Eingedunkelt (1992) - 4. Angefochtener Stein"
PERFORMER "Musik in Deutschland 1950-2000"
INDEX 00 45:17:23
INDEX 01 45:20:66
TRACK 28 AUDIO
TITLE "Aribert Reimann - Eingedunkelt (1992) - 5. Bedenkenlos"
PERFORMER "Musik in Deutschland 1950-2000"
INDEX 01 47:33:60
TRACK 29 AUDIO
TITLE "Deltlev Mьller-Siemens - Zwei Lieder nach Gedichten von Friedrich Hцlderlin (..."
PERFORMER "Musik in Deutschland 1950-2000"
INDEX 00 49:44:59
INDEX 01 49:52:34
TRACK 30 AUDIO
TITLE "Moritz Eggert - Neue Dichter Lieben (2000) - 4. Liebeserklдrung"
PERFORMER "Musik in Deutschland 1950-2000"
INDEX 00 55:59:46
INDEX 01 56:05:05
TRACK 31 AUDIO
TITLE "Moritz Eggert - Neue Dichter Lieben (2000) - 9. herz vers sagen"
PERFORMER "Musik in Deutschland 1950-2000"
INDEX 00 58:01:72
INDEX 01 58:04:74
TRACK 32 AUDIO
TITLE "Matthias Pintscher - Lieder und Schneebilder (2000) - 1. Erstes Schneebild"
PERFORMER "Musik in Deutschland 1950-2000"
INDEX 00 60:30:01
INDEX 01 60:36:53
TRACK 33 AUDIO
TITLE "Andrй Werner - Jahnn-Lieder (2000) - 1."
PERFORMER "Musik in Deutschland 1950-2000"
INDEX 00 63:05:61
INDEX 01 63:13:01
TRACK 34 AUDIO
TITLE "Andrй Werner - Jahnn-Lieder (2000) - 2."
PERFORMER "Musik in Deutschland 1950-2000"
INDEX 01 64:35:24
TRACK 35 AUDIO
TITLE "Andrй Werner - Jahnn-Lieder (2000) - 4."
PERFORMER "Musik in Deutschland 1950-2000"
INDEX 01 65:38:61
TRACK 36 AUDIO
TITLE "Isabel Mundry - Anagramm von Unica Zьrn (2000) - 1. Stille Wasser sind tief"
PERFORMER "Musik in Deutschland 1950-2000"
INDEX 00 67:00:14
INDEX 01 67:06:02
TRACK 37 AUDIO
TITLE "Isabel Mundry - Anagramm von Unica Zьrn (2000) - 2. Das Fenster will Eis - ist"
PERFORMER "Musik in Deutschland 1950-2000"
INDEX 00 69:10:57
INDEX 01 69:10:59



Показать сообщения:    

Текущее время: 05-Дек 05:30

Часовой пояс: UTC + 3


Вы не можете начинать темы
Вы не можете отвечать на сообщения
Вы не можете редактировать свои сообщения
Вы не можете удалять свои сообщения
Вы не можете голосовать в опросах
Вы не можете прикреплять файлы к сообщениям
Вы не можете скачивать файлы