В поисках Сахарного Человека / Searching for Sugar Man (Malik Bendjelloul / Малик Бенджеллуль) [2012, Документальный, Биография, Музыка, HDRip]


Статистика раздачи [Обновить пиров]
Размер:  1.45 GB   |    Зарегистрирован:  8 месяцев 16 дней   |    Скачан:  0 раз

Полного источника не было: Никогда

Личеров:  3  [  0 KB/s  ]   Подробная статистика пиров
 
   
 
 
 

[Цитировать]

В поисках Сахарного Человека / Searching for Sugar Man
Дата/Год выпуска: 2012
Страна: Швеция, Великобритания
Жанр: Документальный, Биография, Музыка
Продолжительность: 01:26:26
Перевод: Профессиональный (многоголосый закадровый)
Доп. инфо о переводе: 1 канал
Русские субтитры: нет
Оригинальная аудиодорожка: английский
Режиссер: Malik Bendjelloul / Малик Бенджеллуль
Телеканал: 1 канал
Описание: Американский музыкант и автор песен остросоциального характера Сиксто Родригес в начале 1970-х годов выпустил пару альбомов. Пластинки не пользовались популярностью, поэтому Родригес перестал записываться и исчез из виду. Тем временем его песни приобрели широкую известность в ЮАР в среде молодежи, настроенной против режима апартеида. Поскольку проникновение информации извне в то время было затруднено, личность Родригеса была загадочной для его южноафриканских почитателей. Ходили слухи о его шокирующем самоубийстве на сцене. В 1990-е годы два поклонника Родригеса Стивен Сегерман и Крэйг Бартоломью Страйдом решили начать расследование и выяснить, что же это был за человек, и что с ним случилось на самом деле. Лауреат Оскара за лучший документальный фильм.
Сэмпл: http://multi-up.com/1022433
качество: HDRip
формат: AVI
Видео: MPEG4, XviD, 720x400 (16/9), 23.976 fps, 1 751 Kbps (0.254 bit/pixel)
Аудио: AC-3, 48.0 KHz, 2 ch, 192 Kbps, CBR - русский
Аудио 2: AC-3, 48.0 KHz, 6 ch, 448 Kbps, CBR - английский

MediaInfo

Общее
Полное имя : K:\В поисках Сахарного Человека.avi
Формат : AVI
Формат/Информация : Audio Video Interleave
Размер файла : 1,45 Гбайт
Продолжительность : 1 ч. 26 м.
Общий поток : 2405 Кбит/сек
Название фильма : В поисках Сахарного Человека / Searching for Sugar Man (2012)
Программа кодирования : VirtualDubMod 1.5.10.2 (build 2540/release)
Библиотека кодирования : VirtualDubMod build 2540/release
Правообладатель : miha2154
Видео
Идентификатор : 0
Формат : MPEG-4 Visual
Профиль формата : Advanced Simple@L5
Параметр BVOP формата : 1
Параметр QPel формата : Нет
Параметр GMC формата : Без точки перехода
Параметр матрицы формата : Выборочная
Идентификатор кодека : XVID
Идентификатор кодека/Подсказка : XviD
Продолжительность : 1 ч. 26 м.
Битрейт : 1751 Кбит/сек
Ширина : 720 пикселей
Высота : 400 пикселей
Соотношение сторон : 16:9
Частота кадров : 23,976 кадра/сек
Цветовое пространство : YUV
Субдискретизация насыщенности : 4:2:0
Битовая глубина : 8 бит
Тип развёртки : Прогрессивная
Метод сжатия : С потерями
Бит/(Пиксели*Кадры) : 0.254
Размер потока : 1,06 Гбайт (73%)
Библиотека кодирования : XviD 65
Аудио #1
Идентификатор : 1
Формат : AC-3
Формат/Информация : Audio Coding 3
Расширение режима : CM (complete main)
Параметр Endianness формата : Big
Идентификатор кодека : 2000
Продолжительность : 1 ч. 26 м.
Вид битрейта : Постоянный
Битрейт : 192 Кбит/сек
Каналы : 2 канала
Расположение каналов : Front: L R
Частота : 48,0 КГц
Битовая глубина : 16 бит
Метод сжатия : С потерями
Размер потока : 119 Мбайт (8%)
Выравнивание : Разделение по промежуткам
Продолжительность промежутка : 42 мс. (1,00 видеокадр)
Время предзагрузки промежутка : 500 мс.
Заголовок : Профессиональный (многоголосый закадровый) 1 канал
Аудио #2
Идентификатор : 2
Формат : AC-3
Формат/Информация : Audio Coding 3
Расширение режима : CM (complete main)
Параметр Endianness формата : Big
Идентификатор кодека : 2000
Продолжительность : 1 ч. 26 м.
Вид битрейта : Постоянный
Битрейт : 448 Кбит/сек
Каналы : 6 каналов
Расположение каналов : Front: L C R, Side: L R, LFE
Частота : 48,0 КГц
Битовая глубина : 16 бит
Метод сжатия : С потерями
Размер потока : 277 Мбайт (19%)
Выравнивание : Разделение по промежуткам
Продолжительность промежутка : 42 мс. (1,00 видеокадр)
Время предзагрузки промежутка : 500 мс.
Заголовок : Английский

Скриншоты

[teatrix.ru].t19878.torrent 
Торрент: Зарегистрирован [ 2016-03-19 00:22 ] · 88BA6B3927158EDB61B75D3BBFB48E2612447BAA

Скачать .torrent

Скачать

15 KB

Статус: проверено
Скачан: 0 раз
Размер: 1.45 GB
terms.php



Быстрый ответ

Имя:

      
Для отправки сообщений необходимо включить JavaScript
Показать сообщения:    

Текущее время: 04-Дек 02:54

Часовой пояс: UTC + 3


Вы можете начинать темы
Вы можете отвечать на сообщения
Вы не можете редактировать свои сообщения
Вы не можете удалять свои сообщения
Вы не можете голосовать в опросах
Вы не можете прикреплять файлы к сообщениям
Вы можете скачивать файлы