(Opera, Vocal) [LP] [24/96] Jonas Kaufmann - The Verdi Album - 2013, FLAC (tracks)


Статистика раздачи [Обновить пиров]
Размер:  1.47 GB   |    Зарегистрирован:  8 месяцев 23 дня   |    Скачан:  0 раз

Полного источника не было: Никогда

Личеров:  3  [  0 KB/s  ]   Подробная статистика пиров
 
   
 
 
 

[Цитировать]

Jonas Kaufmann - The Verdi Album (Tenor Arias from Aida, Il Trovatore, Don Carlo, La Forza del destino, Un Ballo in Maschera, Rigoletto, I Masnadieri, Simon Boccanegra, Luisa Miller, Otello, Macbeth)
Жанр: Opera, Vocal
Носитель: LP
Год выпуска: 2013
Лейбл: Sony Classical
Страна-производитель: EU
Аудио кодек: FLAC
Тип рипа: tracks
Формат записи: 24/96
Формат раздачи: 24/96
Продолжительность: 01:13:30
Треклист:
01. Rigoletto - Atto III, Canzone: "La donna è mobile" [02:21];
02. Aida - Atto I, Scena e romanza: "Se quel guerrier io fossi!... Celeste Aida" [04:43];
03. Un ballo in maschera - Atto I, Canzone: "Di' tu se fedele" (feat. Coro del Teatro Municipale di Piacenza) [03:29];
04. Un Ballo in Maschera - Atto III, Scena e romanza: "Forse la soglia attinse... Ma se m'è forza perderti" [05:41];
05. Il Trovatore - Parte III, Scena ed aria: "Ah! sì, ben mio... Di quella pira" (feat. Erika Grimaldi, soprano, as Leonora, Giovanni Gregnanin, tenor, as Ruiz, Coro del Teatro Municipale di Piacenza) [07:52];
06. Luisa Miller - Atto II, Scena ed aria: "Oh! fede negar potessi... Quando le sere al placido" [06:21];
07. Simon Boccanegra - Atto II, Scena ed aria: "O inferno! Amelia qui!... Sento avvampar nell'anima... Cielo pietoso, rendila" [05:56];
08. Don Carlo - Atto II, Scena e duetto: "È lui! desso, l'Infante!... Dio, che nell'alma infondere" (feat. Franco Vassallo, baritone, as Rodrigo and Daniele Cusari, bass, as un frate, Coro del Teatro Municipale di Piacenza) [08:26];
09. La Forza del Destino - Atto III, Scena e romanza: "La vita è inferno all'infelice...O tu, che in seno agli angeli" [10:41];
10. I Masnadieri - Atto III, Scena 2: "Destatevi, o pietre... Giuri ognun questo canuto" (feat. Coro del Teatro Municipale di Piacenza) [04:25];
11. Otello - Atto III : "Dio! mi potevi scagliar" (feat. Franco Vassallo, baritone, as Jago) [05:14];
12. Otello - Atto IV: "Niun mi tema" [06:09];
13. Macbeth - Atto VI: ''O, figli, o figli miei!... Ah, la paterna mano'' [04:12].
Исполнители:
Jonas Kaufmann (tenor),
Franco Vassallo (baritone),
Daniele Cusari (bass),
Erika Grimaldi (soprano),
Giovanni Gregnanin (tenor).
Coro del Teatro Municipale di Piacenza
Orchestra dell'Opera di Parma,
Pier Giorgio Morandi (Conductor).
АВТОР ОРИГИНАЛЬНОГО РЕЛИЗА - Rachmaninov (boxset). GREAT THANK FOR THIS OUTSTANDING WORK!!!
Источник оцифровки: третьим лицом
Код класса состояния винила: Ex
Устройство воспроизведения: Vintage (1982) Yamaha PX-3
Головка звукоснимателя: Sumiko Black Bird
Предварительный усилитель: Pro-Ject Phono Box RSP
АЦП: RME Fireface UC
Программа-оцифровщик: iZotope RX Advanced v3.01, Adobe Audition CS 5.5
Обработка: конвертирование WAV - FLAC с посредством Twisted Wave 1.9, удаление щелчков с помощью iZotope, ручное удаление нескольких щелчков. Шумоподавление не производилось.

Спектр, уровень записи

АЧХ

DR12

----------------------------------------------------------------------------------------------
Analyzed folder: /Volumes/HDMUSIC/ Upload on HiResMusic/ CLASSICAL/96kJoKa_ThVerAlb/96k Jonas Kaufmann - The Verdi Album
----------------------------------------------------------------------------------------------
DR Peak RMS Filename
----------------------------------------------------------------------------------------------
DR13 -1.66 dB -19.68 dB A1 Rigoletto, Atto III, 'La Donna E' Mobile'.wav
DR12 -0.75 dB -19.12 dB A2 Aida, Atto I, 'Se quel guerrier io fossi...Celeste Aida'.wav
DR12 -0.99 dB -18.38 dB A3 Un Ballo in Maschera, Atto I, 'Di' Tu Se Fedele'.wav
DR12 -1.43 dB -19.91 dB A4 Un Ballo In Maschera, Atto III, 'Forse La Soglia Attinse... Ma Se M'e' Forza Perderti'.wav
DR12 -0.39 dB -16.77 dB B1 Il Trovatore, Parte III, 'Ah Si, Ben Mio... Di Quella Pira'.wav
DR12 -1.83 dB -19.92 dB B2 Luisa Miller, Atto II, Scena ed aria, 'Oh Fede Negar Potessi... Quando Le Sere Al Placido'.wav
DR12 -2.07 dB -19.54 dB B3 Simon Boccanegra, Atto II, 'O Inferno. Amelia Qui... Sento Avvampar Nell'Anima... Cielo Pietoso, Rendila'.wav
DR12 -0.82 dB -17.88 dB C1 Don Carlo, Atto II, 'E' Lui Desso, L'Infante... Dio, Che Nell'alma Infondere'.wav
DR13 -1.99 dB -21.23 dB C2 La Forza Del Destino, Atto III, 'La Vita E' Inferno All'Infelice...O Tu, Che In Seno Agli Angeli'.wav
DR10 -0.90 dB -14.68 dB D1 I Masnadieri, Atto III, 'Destatevi, O Pietre... Giuri Ognun Questo Canuto'.wav
DR11 -0.92 dB -18.17 dB D2 Otello, Atto III, 'Dio Mi Potevi Scagliar'.wav
DR13 -1.64 dB -21.52 dB D3 Otello, Atto IV, 'Niun Mi Tema'.wav
DR11 -2.35 dB -19.49 dB D4 Macbeth, Atto IV, 'O Figli, O Figli Miei... Ah, La Paterna Mano'.wav
----------------------------------------------------------------------------------------------
Number of files: 13
Official DR value: DR12
==============================================================================================
[teatrix.ru].t19886.torrent 
Торрент: Зарегистрирован [ 2016-03-19 00:22 ] · 492C527771B85345E7000408C74B36C2E1EECEAE

Скачать .torrent

Скачать

17 KB

Статус: проверено
Скачан: 0 раз
Размер: 1.47 GB
terms.php



Быстрый ответ

Имя:

      
Для отправки сообщений необходимо включить JavaScript
Показать сообщения:    

Текущее время: 11-Дек 11:08

Часовой пояс: UTC + 3


Вы можете начинать темы
Вы можете отвечать на сообщения
Вы не можете редактировать свои сообщения
Вы не можете удалять свои сообщения
Вы не можете голосовать в опросах
Вы не можете прикреплять файлы к сообщениям
Вы можете скачивать файлы