(Baroque concerto / cantate) Francois Couperin, Franсois Colin de Blamont - Concert chez la Reine [Apotheose de Lully · Circe · Festes grecques et romaines] (Les Ombres / Margaux Blanchard, Sylvain Sartre) - 2010, APE (image+.cue) lossless


Статистика раздачи [Обновить пиров]
Размер:  396 MB   |    Зарегистрирован:  8 месяцев 21 день   |    Скачан:  0 раз

Полного источника не было: Никогда

Личеров:  3  [  0 KB/s  ]   Подробная статистика пиров
 
   
 
 
 

[Цитировать]

François Couperin, Colin de Blamont - Concert chez la Reine

Жанр: Baroque concerto / cantate
Страна-производитель диска: Made in Europe
Год издания диска: 2010
Издатель (лейбл): Centre culturel de rencontre d'Ambronay
Номер по каталогу: AMY301
Дата записи: 2010
Аудиокодек: APE
Тип рипа: image+.cue
Битрейт аудио: lossless
Продолжительность: 75'00
Источник: релизер
сайт-источник/ник/другое: Pancho Villa, Ice
Наличие сканов в содержимом раздачи: да
Треклист:

скрытый текст

Francois Couperin
1 Apotheose de Lully: Lully aux Champs Elysées, concertant avec les Ombres lyriques 00:02:34
2 Air pour les mêmes 00:01:09
3 Vol de Mercure aux Champs Elysées pour avertir qu'Apollon y va descendre 00:00:39
4 Descente d'Apollon qui vient d'offrir son violon à Lully et sa place au Parnasse 00:03:12
5 Rumeur souterraine, causée par les Auteurs contemporains de Lully 00:00:44
6 Plaintes des mêmes pour des flûtes ou des violons très adoucis 00:03:27
7 Enlèvement de Lully au Parnasse 00:01:01
8 Accueil entre doux et hagard fait à Lully par Corelli et par les Muses italienne 00:02:40
9 Remerciement de Lully à Apollon 00:02:54
10 Apollon persuade Lully et Corelli que la réunion des Goûts Français et Italien d 00:03:11
11 Lully jouant le Sujet, et Corelli l'accompagnant 00:01:00
12 Corelli jouant le Sujet à son tour, que Lully accompagne 00:01:33
13 La Paix du Parnasse, faite aux conditions, sur la remontrance des Muses français 00:02:31
14 Saillie 00:01:44
15 Rondement 00:01:35
16 Vivement 00:01:39
Colin de Blamont
17 Circé: Texte récité de la cantate 00:04:01
18 Circé: Sur un rocher désert 00:02:39
19 Cruel auteur 00:03:04
20 C'est ainsi qu'en regrets 00:01:41
21 Sa voix redoutable 00:02:23
22 Dans le sein de la mort 00:02:36
23 Ce n'est point par effort qu'on aime 00:01:48
24 Dans les champs que l'hiver désole 00:02:30
25 Festes grecques et romaines: Ouverture 00:03:32
26 Sarabande 00:01:44
27 Premier et deuxième rigaudon 00:01:40
28 Air (si b M) 00:01:08
29 Air (ré m) 00:01:38
30 Chaconne /Princesse Marie 00:12:46
Исполнители:

скрытый текст

François Couperin, François Colin de Blamont
Concert chez la Reine
Apotheose de Lully · Circé · Festes grecques et romaines
François Couperin
Апофеоз Люлли
François Colin de Blamont
Цирцея (кантата) · Греческие и римские празднества (концерт)
Melodie Ruvio - меццо сопрано
Les Ombres
Margaux Blanchard, Sylvain Sartre - руководители
издано November 16, 2010

Лог создания рипа

Exact Audio Copy V1.0 beta 1 from 15. November 2010
EAC extraction logfile from 28. January 2012, 13:22
Unknown Artist / Unknown Title
Used drive : HL-DT-STDVDRAM GSA-H42L Adapter: 2 ID: 0
Read mode : Secure
Utilize accurate stream : Yes
Defeat audio cache : Yes
Make use of C2 pointers : No
Read offset correction : 667
Overread into Lead-In and Lead-Out : No
Fill up missing offset samples with silence : Yes
Delete leading and trailing silent blocks : No
Null samples used in CRC calculations : No
Used interface : Native Win32 interface for Win NT & 2000
Used output format : Internal WAV Routines
Sample format : 44.100 Hz; 16 Bit; Stereo
TOC of the extracted CD
Track | Start | Length | Start sector | End sector
---------------------------------------------------------
1 | 0:00.00 | 2:34.43 | 0 | 11592
2 | 2:34.43 | 1:09.08 | 11593 | 16775
3 | 3:43.51 | 0:39.14 | 16776 | 19714
4 | 4:22.65 | 3:12.50 | 19715 | 34164
5 | 7:35.40 | 0:44.35 | 34165 | 37499
6 | 8:20.00 | 3:27.68 | 37500 | 53092
7 | 11:47.68 | 1:01.60 | 53093 | 57727
8 | 12:49.53 | 2:40.23 | 57728 | 69750
9 | 15:30.01 | 2:54.59 | 69751 | 82859
10 | 18:24.60 | 3:11.64 | 82860 | 97248
11 | 21:36.49 | 1:00.13 | 97249 | 101761
12 | 22:36.62 | 1:33.16 | 101762 | 108752
13 | 24:10.03 | 2:31.38 | 108753 | 120115
14 | 26:41.41 | 1:44.09 | 120116 | 127924
15 | 28:25.50 | 1:35.23 | 127925 | 135072
16 | 30:00.73 | 1:39.29 | 135073 | 142526
17 | 31:40.27 | 4:01.29 | 142527 | 160630
18 | 35:41.56 | 2:39.04 | 160631 | 172559
19 | 38:20.60 | 3:04.66 | 172560 | 186425
20 | 41:25.51 | 1:41.58 | 186426 | 194058
21 | 43:07.34 | 2:23.39 | 194059 | 204822
22 | 45:30.73 | 2:36.00 | 204823 | 216522
23 | 48:06.73 | 1:48.45 | 216523 | 224667
24 | 49:55.43 | 2:30.27 | 224668 | 235944
25 | 52:25.70 | 3:32.40 | 235945 | 251884
26 | 55:58.35 | 1:44.61 | 251885 | 259745
27 | 57:43.21 | 1:40.68 | 259746 | 267313
28 | 59:24.14 | 1:08.52 | 267314 | 272465
29 | 60:32.66 | 1:38.63 | 272466 | 279878
30 | 62:11.54 | 12:46.46 | 279879 | 337374
Range status and errors
Selected range
Filename C:\Documents and Settings\Administrateur\Mes documents\François Couperin - Colin de Blamont Concert chez la Reine\Unknown Artist - Unknown Title.wav
Peak level 98.9 %
Extraction speed 1.2 X
Range quality 100.0 %
Copy CRC AB32376F
Copy OK
No errors occurred
AccurateRip summary
Track 1 not present in database
Track 2 not present in database
Track 3 not present in database
Track 4 not present in database
Track 5 not present in database
Track 6 not present in database
Track 7 not present in database
Track 8 not present in database
Track 9 not present in database
Track 10 not present in database
Track 11 not present in database
Track 12 not present in database
Track 13 not present in database
Track 14 not present in database
Track 15 not present in database
Track 16 not present in database
Track 17 not present in database
Track 18 not present in database
Track 19 not present in database
Track 20 not present in database
Track 21 not present in database
Track 22 not present in database
Track 23 not present in database
Track 24 not present in database
Track 25 not present in database
Track 26 not present in database
Track 27 not present in database
Track 28 not present in database
Track 29 not present in database
Track 30 not present in database
None of the tracks are present in the AccurateRip database
End of status report
==== Log checksum 59856580D542137392358054B4DA1F726DEA83082333A358E0183CB0725C71CB ====

Содержание индексной карты (.CUE)

REM GENRE Classical
REM DATE 2010
REM DISCID B311921E
REM COMMENT ExactAudioCopy v1.0b1
PERFORMER "Les Ombres"
TITLE "Couperin, Colin de Blamont: Concert chez la Reine "
FILE "Couperin,Colin de Blamont-Concert chez la Reine-Les Ombres.ape" WAVE
TRACK 01 AUDIO
TITLE "Apotheose de Lully: Lully aux Champs Elysees, concertant avec les Ombres lyriques"
INDEX 01 00:00:00
TRACK 02 AUDIO
TITLE "Apotheose de Lully: Air pour les mкmes"
INDEX 01 02:34:43
TRACK 03 AUDIO
TITLE "Apotheose de Lully: Vol de Mercure aux Champs Elysees pour avertir qu'Apollon y va descendre"
INDEX 01 03:43:51
TRACK 04 AUDIO
TITLE "Apotheose de Lully: Descente d'Apollon qui vient d'offrir son violon а Lully et sa place au Parnasse"
INDEX 01 04:22:65
TRACK 05 AUDIO
TITLE "Apotheose de Lully: Rumeur souterraine, causee par les Auteurs contemporains de Lully"
INDEX 01 07:35:40
TRACK 06 AUDIO
TITLE "Apotheose de Lully: Plaintes des memes pour des flutes ou des violons tres adoucis"
INDEX 01 08:20:00
TRACK 07 AUDIO
TITLE "Apotheose de Lully: Enlevement de Lully au Parnasse"
INDEX 01 11:47:68
TRACK 08 AUDIO
TITLE "Apotheose de Lully: Accueil entre doux et hagard fait а Lully par Corelli et par les Muses italienne"
INDEX 01 12:49:53
TRACK 09 AUDIO
TITLE "Apotheose de Lully: Remerciement de Lully а Apollon"
INDEX 01 15:30:01
TRACK 10 AUDIO
TITLE "Apotheose de Lully: Apollon persuade Lully et Corelli que la reunion des Gouts Francais et Italien d"
INDEX 01 18:24:60
TRACK 11 AUDIO
TITLE "Apotheose de Lully: Lully jouant le Sujet, et Corelli l'accompagnant"
INDEX 01 21:36:49
TRACK 12 AUDIO
TITLE "Apotheose de Lully: Corelli jouant le Sujet а son tour, que Lully accompagne"
INDEX 01 22:36:62
TRACK 13 AUDIO
TITLE "Apotheose de Lully: La Paix du Parnasse, faite aux conditions, sur la remontrance des Muses franзais"
INDEX 01 24:10:03
TRACK 14 AUDIO
TITLE "Apotheose de Lully: Saillie"
INDEX 01 26:41:41
TRACK 15 AUDIO
TITLE "Apotheose de Lully: Rondement"
INDEX 01 28:25:50
TRACK 16 AUDIO
TITLE "Apotheose de Lully: Vivement"
INDEX 01 30:00:73
TRACK 17 AUDIO
TITLE "Circe: Texte recite de la cantate"
INDEX 00 31:37:13
INDEX 01 31:40:27
TRACK 18 AUDIO
TITLE "Circe: Sur un rocher desert"
INDEX 01 35:41:56
TRACK 19 AUDIO
TITLE "Circe: Cruel auteur"
INDEX 01 38:20:60
TRACK 20 AUDIO
TITLE "Circe: C'est ainsi qu'en regrets"
INDEX 01 41:25:51
TRACK 21 AUDIO
TITLE "Circe: Sa voix redoutable"
INDEX 01 43:07:34
TRACK 22 AUDIO
TITLE "Circe: Dans le sein de la mort"
INDEX 01 45:30:73
TRACK 23 AUDIO
TITLE "Circe: Ce n'est point par effort qu'on aime"
INDEX 01 48:06:73
TRACK 24 AUDIO
TITLE "Circe: Dans les champs que l'hiver desole"
INDEX 01 49:55:43
TRACK 25 AUDIO
TITLE "Festes grecques et romaines: Ouverture"
INDEX 01 52:25:70
TRACK 26 AUDIO
TITLE "Festes grecques et romaines: Sarabande"
INDEX 01 55:58:35
TRACK 27 AUDIO
TITLE "Festes grecques et romaines: Premier et deuxieme rigaudon"
INDEX 00 57:43:20
INDEX 01 57:43:21
TRACK 28 AUDIO
TITLE "Festes grecques et romaines: Air (si b M)"
INDEX 01 59:24:14
TRACK 29 AUDIO
TITLE "Festes grecques et romaines: Air (re m)"
INDEX 00 60:32:57
INDEX 01 60:32:66
TRACK 30 AUDIO
TITLE "Festes grecques et romaines: Chaconne -Princesse Marie"
INDEX 01 62:11:54
[teatrix.ru].t19888.torrent 
Торрент: Зарегистрирован [ 2016-03-19 00:22 ] · 19F2965D20AE9B0E29C600102D2C0B327C7C8209

Скачать .torrent

Скачать

18 KB

Статус: проверено
Скачан: 0 раз
Размер: 396 MB
terms.php



Быстрый ответ

Имя:

      
Для отправки сообщений необходимо включить JavaScript
Показать сообщения:    

Текущее время: 09-Дек 10:47

Часовой пояс: UTC + 3


Вы можете начинать темы
Вы можете отвечать на сообщения
Вы не можете редактировать свои сообщения
Вы не можете удалять свои сообщения
Вы не можете голосовать в опросах
Вы не можете прикреплять файлы к сообщениям
Вы можете скачивать файлы