Волшебник страны Оз: Реальная история / The Wonderful Wizard of Oz: The True Story (Энн Макгрегор / Anne Macgregor) [2010, Документальный, история, литература, кино, IPTVRip]


Статистика раздачи [Обновить пиров]
Размер:  901 MB   |    Зарегистрирован:  8 месяцев 16 дней   |    Скачан:  0 раз

Полного источника не было: Никогда

Личеров:  3  [  0 KB/s  ]   Подробная статистика пиров
 
   
 
 
 

[Цитировать]

Волшебник страны Оз: Реальная история / The Wonderful Wizard of Oz: The True Story
Дата/Год выпуска: 2010
Страна: Великобритания, Prospect Cymru/Wales Ltd, Moondanc
Жанр: Документальный, история, литература, кино
Продолжительность: 00:58:59
Перевод: Профессиональный (дублированный)
Доп. инфо о переводе: Ирина Добрынина
Русские субтитры: нет
Оригинальная аудиодорожка: нет
Режиссер: Энн Макгрегор / Anne Macgregor
Телеканал: Viasat History
Описание: Культовую американскую сказку написал в 1900 году Лаймен Фрэнк Баум — бизнесмен из Чикаго, журналист, работник птицефермы, актер, владелец модного магазина, голливудский режиссер и страстный поклонник новых изобретений. Он жил в эпоху расцвета американского технического прогресса, и новые изобретения подогревали его писательское воображение. Он мечтал сотворить первую американскую волшебную сказку, и придуманная им история до сих пор изумляет и вдохновляет миллионы почитателей по всему миру. Документальный фильм рассказывает о том, как «Волшебник страны Оз» превратился в символ американской мечты. В нем использованы ранее неизвестные кадры хроники из архивов семьи Баум, а также фотографии, сцены из ранних кинофильмов и интервью с родственниками Фрэнка Баума, литературоведами и историками.
Сэмпл: http://multi-up.com/1022696
качество: IPTVRip
формат: AVI
Видео: 720x416 (1.73:1), 23.976 fps, XviD build 66 ~1933 kbps avg, 0.27 bit/pixel
Аудио: 48 kHz, AC3 Dolby Digital, 2/0 (L,R) ch, ~192 kbps

MediaInfo

General
Complete name : E:\Pshichko66\Na zapis'\Документальные фильмы\Volshebnik strany Oz. Real'naya istoriya.avi
Format : AVI
Format/Info : Audio Video Interleave
File size : 901 MiB
Duration : 58mn 59s
Overall bit rate : 2 135 Kbps
Movie name : V
Director : P
Genre : D
Writing application : V
Original source form/Name : D
Copyright : 2
Video
ID : 0
Format : MPEG-4 Visual
Format profile : Advanced Simple@L5
Format settings, BVOP : 2
Format settings, QPel : No
Format settings, GMC : No warppoints
Format settings, Matrix : Custom
Codec ID : XVID
Codec ID/Hint : XviD
Duration : 58mn 59s
Bit rate : 1 933 Kbps
Width : 720 pixels
Height : 416 pixels
Display aspect ratio : 1.731
Frame rate : 23.976 fps
Color space : YUV
Chroma subsampling : 4:2:0
Bit depth : 8 bits
Scan type : Progressive
Compression mode : Lossy
Bits/(Pixel*Frame) : 0.269
Stream size : 816 MiB (91%)
Writing library : XviD 66
Audio
ID : 1
Format : AC-3
Format/Info : Audio Coding 3
Mode extension : CM (complete main)
Format settings, Endianness : Big
Codec ID : 2000
Duration : 58mn 59s
Bit rate mode : Constant
Bit rate : 192 Kbps
Channel count : 2 channels
Channel positions : Front: L R
Sampling rate : 48.0 KHz
Bit depth : 16 bits
Compression mode : Lossy
Stream size : 81.0 MiB (9%)
Alignment : Split accross interleaves
Interleave, duration : 42 ms (1.00 video frame)
Interleave, preload duration : 500 ms

Скриншоты

[teatrix.ru].t19889.torrent 
Торрент: Зарегистрирован [ 2016-03-19 00:22 ] · C5B362CB0F43A7D39E3C548E3252FAD678388EFC

Скачать .torrent

Скачать

18 KB

Статус: проверено
Скачан: 0 раз
Размер: 901 MB
terms.php



Быстрый ответ

Имя:

      
Для отправки сообщений необходимо включить JavaScript
Показать сообщения:    

Текущее время: 04-Дек 06:57

Часовой пояс: UTC + 3


Вы можете начинать темы
Вы можете отвечать на сообщения
Вы не можете редактировать свои сообщения
Вы не можете удалять свои сообщения
Вы не можете голосовать в опросах
Вы не можете прикреплять файлы к сообщениям
Вы можете скачивать файлы