(Baroque oratorio) Handel / Mozart - Der Messias KV 572 - Мессия - Messiah (Monika Frimmer, Christoph Pregardien / Rheinische Kantorei, Das Kleine Konzert, Hermann Max) - 1992, FLAC (tracks+.cue) lossless


Статистика раздачи [Обновить пиров]
Размер:  574 MB   |    Зарегистрирован:  8 месяцев 16 дней   |    Скачан:  0 раз

Полного источника не было: Никогда

Личеров:  3  [  0 KB/s  ]   Подробная статистика пиров
 
   
 
 
 

[Цитировать]

Handel - Der Messias - Hermann Max

Жанр: Baroque oratorio
Страна-производитель диска: Made in Holland
Год издания диска: 1992
Издатель (лейбл): EMI Electrola GmbH
Номер по каталогу: CDS 7 54353 2
Дата записи: 1992
Аудиокодек: FLAC
Тип рипа: tracks+.cue
Битрейт аудио: lossless
Продолжительность: 53'25 + 69'12
Источник: релизер
сайт-источник/ник/другое: Thomas Cadfael and Meeting in Music blogspot
Наличие сканов в содержимом раздачи: да
Треклист:

скрытый текст

CD1

скрытый текст

1. Handel - Messiah, K. 572 (Sung in German): Overture
2. Part I: Accompagnato: Trostet , trostet Zion!, spricht eu'r Gott (Tenor)
3. Aria: Alle Tale macht hoch und erhaben und senkt die (Tenor)
4. Denn die Herrlichkeit Gottes des Herrn wird of fenbaret (Chorus)
5. Accompagnato: So spricht der Herr Gott Zebaoth (Bass)
6. Aria: Doch wer mag ertragen den Tag seiner Ankunft (Bass)
7. Und er wird reinigen die Kinder Levi (Chorus, Alto)
8. O du, die Wonne verkundet in Zion (Alto)
9. Accompagnato: Blick auf! Nacht bedecket das Erdreich (Bass)
10. Aria: Das Volk, das im Dunkeln wandelt (Bass)
11. Uns ist zum Heil ein Kind geboren (Chorus)
12. Recitative: Es waren Hirten beisammen auf dem Felde (Soprano)
13. Accompagnato: Recitative: Und sieh! Der Engel des Herrn trat zu ihnen (Soprano)
14. Accompagnato: Und alsobald war da bei dem Engel die Menge der himmlischen (Alto)
15. Ehre sei Gott in der Hohe! (Chorus)
16. Aria: Erwach' zu Liedern der Wonne (Tenor, Soprano)
17. Aria: Er weidet seine Herde (Soprano)
18. Sein Joch ist sanft (Chorus, Soloists)
CD2

скрытый текст

1. Handel - Messiah, K. 572 (Sung in German): Part II: Kommt her und seht das Lamm! (Chorus)
2. Aria: Er ward verschmahet und verachtet (Alto)
3. Wahrlich, er litt unsre Qual und trug unsre (Chorus)
4. Durch seine Wunden sind wir geheilet (Chorus)
5. Wie Schafe gehn, flohn wir zerstreut (Chorus)
6. Accompagnato: Und alle, die ihn seh'n, verspotten ihn (Soprano)
7. Er trauete Gott, dass der ihn befreite (Chorus)
8. Accompagnato: Die Schmach bricht ihm sein Herz (Alto)
9. Aria: Schau hin und sieh! (Soprano)
10. Accompagnato: Er ist dahin aus dem Lande der Lebenden (Soprano)
11. Aria: Doch du liessest ihn im Grabe nicht (Soprano)
12. Machet das Tor weit (Chorus)
13. Recitative: Zu welchen von den Engeln hat er je gesagt (Alto)
14. Der Herr gab das Wort (Chorus)
15. Aria: Wie lieblich ist der Boten Schritt (Soprano)
16. Ihr Schall ging aus in jedes Land (Chorus)
17. Aria: Warum entbrennen die Heiden und tobern im Zorne (Bass)
18. Brecht entzwei die Ketten alle und schuttelt (Chorus)
19. Recitative: Der da wohnet im Himmel (Tenor)
20. Aria: Du zerschlagst sie mit dem Eisenszepter (Tenor)
21. Hallelujah! Denn Gott der herr regieret allmachtig (Chorus)
22. Part III: Aria: Ich weiss, dass mein Erloser lebet (Soprano)
23. Wie durch Einen der Tod (Chorus)
24. Accompagnato: Merkt auf! ich kun' ein Geheimnis an (Bass)
25. Aria: Sie schallt, die Posaun' (Bass, Alto)
26. Duet: O Tod, wo ist dein Pfeil? (Alto, Tenor)
27. Doch Dank dir, sei Dank Gott (Chorus)
28. Accompagnato: Wenn Gott ist fur uns, wer kann wider uns sein? (Soprano)
29. Wurdig ist das Lamm (Chorus)
30. Amen (Chorus)
Исполнители:

скрытый текст

George Frideric Handel (1685-1759), arr. Wolfgang Amadeus Mozart (1756-1791)
Der Messias KV 572
Monika Frimmer - сопрано I
Mechthild Georg - сопрано II
Christoph Prégardien - тенор
Stephan Schreckenberger - басс
Rheinische Kantorei
Das Kleine Konzert
Hermann Max - дирижёр
Лог создания рипа
CD1

скрытый текст

Exact Audio Copy V1.0 beta 3 from 29. August 2011
EAC extraction logfile from 6. December 2014, 20:38
Rheinische Kantorei, Das Kleine Konzert/Hermann Max / Der Messias
Used drive : hp CDDVDW TS-L633N Adapter: 1 ID: 0
Read mode : Secure
Utilize accurate stream : Yes
Defeat audio cache : Yes
Make use of C2 pointers : No
Read offset correction : 6
Overread into Lead-In and Lead-Out : No
Fill up missing offset samples with silence : Yes
Delete leading and trailing silent blocks : No
Null samples used in CRC calculations : Yes
Used interface : Native Win32 interface for Win NT & 2000
Gap handling : Appended to previous track
Used output format : User Defined Encoder
Selected bitrate : 1024 kBit/s
Quality : High
Add ID3 tag : No
Command line compressor : C:\Program Files (x86)\Exact Audio Copy\Flac\flac.exe
Additional command line options : -8 -V -T "ARTIST=%artist%" -T "TITLE=%title%" -T "ALBUM=%albumtitle%" -T "DATE=%year%" -T "TRACKNUMBER=%tracknr%" -T "GENRE=%genre%" -T "PERFORMER=%albuminterpret%" -T "COMPOSER=%composer%" %haslyrics%--tag-from-file=LYRICS="%lyricsfile%"%haslyrics% -T "ALBUMARTIST=%albumartist%" -T "DISCNUMBER=%cdnumber%" -T "TOTALDISCS=%totalcds%" -T "TOTALTRACKS=%numtracks%" -T "COMMENT=%comment%" %source% -o %dest%
TOC of the extracted CD
Track | Start | Length | Start sector | End sector
---------------------------------------------------------
1 | 0:00.00 | 2:53.37 | 0 | 13011
2 | 2:53.37 | 2:51.45 | 13012 | 25881
3 | 5:45.07 | 3:27.33 | 25882 | 41439
4 | 9:12.40 | 2:42.50 | 41440 | 53639
5 | 11:55.15 | 1:22.45 | 53640 | 59834
6 | 13:17.60 | 3:48.40 | 59835 | 76974
7 | 17:06.25 | 2:24.25 | 76975 | 87799
8 | 19:30.50 | 0:27.35 | 87800 | 89859
9 | 19:58.10 | 4:00.10 | 89860 | 107869
10 | 23:58.20 | 1:32.47 | 107870 | 114816
11 | 25:30.67 | 1:59.48 | 114817 | 123789
12 | 27:30.40 | 4:32.20 | 123790 | 144209
13 | 32:02.60 | 3:43.00 | 144210 | 160934
14 | 35:45.60 | 2:22.15 | 160935 | 171599
15 | 38:08.00 | 0:10.57 | 171600 | 172406
16 | 38:18.57 | 0:16.53 | 172407 | 173659
17 | 38:35.35 | 0:41.40 | 173660 | 176774
18 | 39:17.00 | 0:17.12 | 176775 | 178061
19 | 39:34.12 | 1:44.53 | 178062 | 185914
20 | 41:18.65 | 4:00.30 | 185915 | 203944
21 | 45:19.20 | 0:24.02 | 203945 | 205746
22 | 45:43.22 | 4:53.73 | 205747 | 227794
23 | 50:37.20 | 2:47.20 | 227795 | 240339
Track 1
Filename F:\MIMIC\Christmas 2014\Handel, arr Mozart - Der Messias - Hermann Max\CD 1\101 Overture.wav
Pre-gap length 0:00:02.00
Peak level 34.7 %
Extraction speed 2.0 X
Track quality 100.0 %
Test CRC 9903EC36
Copy CRC 9903EC36
Accurately ripped (confidence 2) [E8CF0A90] (AR v2)
Copy OK
Track 2
Filename F:\MIMIC\Christmas 2014\Handel, arr Mozart - Der Messias - Hermann Max\CD 1\102 [rec acc] Tröstet Zion.wav
Pre-gap length 0:00:00.57
Peak level 35.3 %
Extraction speed 2.2 X
Track quality 100.0 %
Test CRC 5FE4E9E0
Copy CRC 5FE4E9E0
Accurately ripped (confidence 2) [B87F2A8D] (AR v2)
Copy OK
Track 3
Filename F:\MIMIC\Christmas 2014\Handel, arr Mozart - Der Messias - Hermann Max\CD 1\103 [aria] Alle Tale macht hoch und erhaben.wav
Pre-gap length 0:00:00.05
Peak level 29.6 %
Extraction speed 2.4 X
Track quality 100.0 %
Test CRC 89D51EBA
Copy CRC 89D51EBA
Accurately ripped (confidence 2) [68C69A35] (AR v2)
Copy OK
Track 4
Filename F:\MIMIC\Christmas 2014\Handel, arr Mozart - Der Messias - Hermann Max\CD 1\104 [coro] Denn die Herrlichkeit Gottes des Herrn.wav
Pre-gap length 0:00:00.05
Peak level 68.4 %
Extraction speed 1.9 X
Track quality 99.9 %
Test CRC 8566B76D
Copy CRC 8566B76D
Accurately ripped (confidence 2) [FB5E85D3] (AR v2)
Copy OK
Track 5
Filename F:\MIMIC\Christmas 2014\Handel, arr Mozart - Der Messias - Hermann Max\CD 1\105 [rec acc] So spricht der Herr.wav
Pre-gap length 0:00:00.05
Peak level 36.5 %
Extraction speed 2.1 X
Track quality 100.0 %
Test CRC BE7C5181
Copy CRC BE7C5181
Accurately ripped (confidence 2) [C258D9AE] (AR v2)
Copy OK
Track 6
Filename F:\MIMIC\Christmas 2014\Handel, arr Mozart - Der Messias - Hermann Max\CD 1\106 [aria] Doch wer mag ertragen den Tag seiner Ankunft.wav
Pre-gap length 0:00:00.05
Peak level 45.1 %
Extraction speed 2.8 X
Track quality 100.0 %
Test CRC DF2B0DE3
Copy CRC DF2B0DE3
Accurately ripped (confidence 2) [F04F67A2] (AR v2)
Copy OK
Track 7
Filename F:\MIMIC\Christmas 2014\Handel, arr Mozart - Der Messias - Hermann Max\CD 1\107 [coro] Und er wird reinigen die Kinder Levi.wav
Pre-gap length 0:00:00.05
Peak level 85.0 %
Extraction speed 2.7 X
Track quality 100.0 %
Test CRC B2819F17
Copy CRC B2819F17
Accurately ripped (confidence 2) [1C486B81] (AR v2)
Copy OK
Track 8
Filename F:\MIMIC\Christmas 2014\Handel, arr Mozart - Der Messias - Hermann Max\CD 1\108 [rec] Denn sieh! Eine Jungfrau wird schwanger.wav
Pre-gap length 0:00:00.05
Peak level 16.2 %
Extraction speed 1.4 X
Track quality 100.0 %
Test CRC A6E82F59
Copy CRC A6E82F59
Accurately ripped (confidence 2) [524F5AD9] (AR v2)
Copy OK
Track 9
Filename F:\MIMIC\Christmas 2014\Handel, arr Mozart - Der Messias - Hermann Max\CD 1\109 [aria] O du, die Wonne verkündet in Zion.wav
Pre-gap length 0:00:00.03
Peak level 35.2 %
Extraction speed 3.2 X
Track quality 100.0 %
Test CRC 9D534875
Copy CRC 9D534875
Accurately ripped (confidence 2) [FA28B839] (AR v2)
Copy OK
Track 10
Filename F:\MIMIC\Christmas 2014\Handel, arr Mozart - Der Messias - Hermann Max\CD 1\110 [coro] O du, die Wonne verkündet in Zion.wav
Pre-gap length 0:00:00.03
Peak level 87.0 %
Extraction speed 1.8 X
Track quality 99.8 %
Test CRC CEE1656F
Copy CRC CEE1656F
Accurately ripped (confidence 2) [0FA04E09] (AR v2)
Copy OK
Track 11
Filename F:\MIMIC\Christmas 2014\Handel, arr Mozart - Der Messias - Hermann Max\CD 1\111 [rec acc] Blick auf! Nacht bedecket das Erdreich.wav
Pre-gap length 0:00:00.05
Peak level 38.0 %
Extraction speed 2.9 X
Track quality 100.0 %
Test CRC CEB9A6F3
Copy CRC CEB9A6F3
Accurately ripped (confidence 2) [61E45097] (AR v2)
Copy OK
Track 12
Filename F:\MIMIC\Christmas 2014\Handel, arr Mozart - Der Messias - Hermann Max\CD 1\112 [aria] Das Volk, das im Dunkeln wandelt.wav
Pre-gap length 0:00:00.03
Peak level 49.9 %
Extraction speed 3.6 X
Track quality 100.0 %
Test CRC 0287C25B
Copy CRC 0287C25B
Accurately ripped (confidence 2) [B8E55D6B] (AR v2)
Copy OK
Track 13
Filename F:\MIMIC\Christmas 2014\Handel, arr Mozart - Der Messias - Hermann Max\CD 1\113 [coro] Uns ist zum Heil ein Kind geboren.wav
Pre-gap length 0:00:00.05
Peak level 87.0 %
Extraction speed 3.6 X
Track quality 100.0 %
Test CRC 1E454A1A
Copy CRC 1E454A1A
Accurately ripped (confidence 2) [32E086F9] (AR v2)
Copy OK
Track 14
Filename F:\MIMIC\Christmas 2014\Handel, arr Mozart - Der Messias - Hermann Max\CD 1\114 Pifa.wav
Pre-gap length 0:00:00.05
Peak level 21.2 %
Extraction speed 3.4 X
Track quality 100.0 %
Test CRC A54CADE9
Copy CRC A54CADE9
Accurately ripped (confidence 2) [C7FAC2D9] (AR v2)
Copy OK
Track 15
Filename F:\MIMIC\Christmas 2014\Handel, arr Mozart - Der Messias - Hermann Max\CD 1\115 [rec] Es waren Hirten beisammen auf dem Felde.wav
Pre-gap length 0:00:00.03
Peak level 46.6 %
Extraction speed 0.9 X
Track quality 100.0 %
Test CRC 5B732AFE
Copy CRC 5B732AFE
Accurately ripped (confidence 2) [7640929B] (AR v2)
Copy OK
Track 16
Filename F:\MIMIC\Christmas 2014\Handel, arr Mozart - Der Messias - Hermann Max\CD 1\116 [rec acc] Und sieh! Der Engel des Herrn.wav
Pre-gap length 0:00:00.02
Peak level 39.3 %
Extraction speed 1.3 X
Track quality 100.0 %
Test CRC B7CD8741
Copy CRC B7CD8741
Accurately ripped (confidence 2) [564ECBC0] (AR v2)
Copy OK
Track 17
Filename F:\MIMIC\Christmas 2014\Handel, arr Mozart - Der Messias - Hermann Max\CD 1\117 [rec] Und der Engel sprach zu ihnen.wav
Pre-gap length 0:00:00.03
Peak level 54.2 %
Extraction speed 2.2 X
Track quality 100.0 %
Test CRC 1E837229
Copy CRC 1E837229
Accurately ripped (confidence 2) [05445BA7] (AR v2)
Copy OK
Track 18
Filename F:\MIMIC\Christmas 2014\Handel, arr Mozart - Der Messias - Hermann Max\CD 1\118 [rec acc] Und alsbald war da.wav
Pre-gap length 0:00:00.03
Peak level 40.4 %
Extraction speed 1.3 X
Track quality 100.0 %
Test CRC 33762944
Copy CRC 33762944
Accurately ripped (confidence 2) [8C948528] (AR v2)
Copy OK
Track 19
Filename F:\MIMIC\Christmas 2014\Handel, arr Mozart - Der Messias - Hermann Max\CD 1\119 [coro] Ehre sei Gott in der Höhe!.wav
Pre-gap length 0:00:00.02
Peak level 76.8 %
Extraction speed 3.2 X
Track quality 100.0 %
Test CRC 65D3BACF
Copy CRC 65D3BACF
Accurately ripped (confidence 2) [8C9098F6] (AR v2)
Copy OK
Track 20
Filename F:\MIMIC\Christmas 2014\Handel, arr Mozart - Der Messias - Hermann Max\CD 1\120 [aria] Erwach' zu Liedern der Wonne.wav
Pre-gap length 0:00:00.05
Peak level 35.5 %
Extraction speed 3.9 X
Track quality 100.0 %
Test CRC 87EFAB9B
Copy CRC 87EFAB9B
Accurately ripped (confidence 2) [D37CF717] (AR v2)
Copy OK
Track 21
Filename F:\MIMIC\Christmas 2014\Handel, arr Mozart - Der Messias - Hermann Max\CD 1\121 [rec] Dann tut das Auge des Blinden sich auf.wav
Pre-gap length 0:00:00.03
Peak level 29.9 %
Extraction speed 1.6 X
Track quality 100.0 %
Test CRC E6863AAC
Copy CRC E6863AAC
Accurately ripped (confidence 2) [6AEF0272] (AR v2)
Copy OK
Track 22
Filename F:\MIMIC\Christmas 2014\Handel, arr Mozart - Der Messias - Hermann Max\CD 1\122 [aria] Er weidet seine Herde.wav
Pre-gap length 0:00:00.02
Peak level 37.1 %
Extraction speed 4.2 X
Track quality 100.0 %
Test CRC 22115564
Copy CRC 22115564
Accurately ripped (confidence 2) [C1A30973] (AR v2)
Copy OK
Track 23
Filename F:\MIMIC\Christmas 2014\Handel, arr Mozart - Der Messias - Hermann Max\CD 1\123 [coro] Sein Joch ist sanft.wav
Pre-gap length 0:00:00.05
Peak level 86.3 %
Extraction speed 3.9 X
Track quality 100.0 %
Test CRC B5D16D2A
Copy CRC B5D16D2A
Accurately ripped (confidence 2) [AAC16651] (AR v2)
Copy OK
All tracks accurately ripped
No errors occurred
End of status report
==== Log checksum 344654D7DC20D7B8104577D4D4D66A3807CD0F8984A087367D94FA82C2F03B01 ====
CD2

скрытый текст

Exact Audio Copy V1.0 beta 3 from 29. August 2011
EAC extraction logfile from 6. December 2014, 21:50
Rheinische Kantorei, Das Kleine Konzert/Hermann Max / Der Messias
Used drive : hp CDDVDW TS-L633N Adapter: 1 ID: 0
Read mode : Secure
Utilize accurate stream : Yes
Defeat audio cache : Yes
Make use of C2 pointers : No
Read offset correction : 6
Overread into Lead-In and Lead-Out : No
Fill up missing offset samples with silence : Yes
Delete leading and trailing silent blocks : No
Null samples used in CRC calculations : Yes
Used interface : Native Win32 interface for Win NT & 2000
Gap handling : Appended to previous track
Used output format : User Defined Encoder
Selected bitrate : 1024 kBit/s
Quality : High
Add ID3 tag : No
Command line compressor : C:\Program Files (x86)\Exact Audio Copy\Flac\flac.exe
Additional command line options : -8 -V -T "ARTIST=%artist%" -T "TITLE=%title%" -T "ALBUM=%albumtitle%" -T "DATE=%year%" -T "TRACKNUMBER=%tracknr%" -T "GENRE=%genre%" -T "PERFORMER=%albuminterpret%" -T "COMPOSER=%composer%" %haslyrics%--tag-from-file=LYRICS="%lyricsfile%"%haslyrics% -T "ALBUMARTIST=%albumartist%" -T "DISCNUMBER=%cdnumber%" -T "TOTALDISCS=%totalcds%" -T "TOTALTRACKS=%numtracks%" -T "COMMENT=%comment%" %source% -o %dest%
TOC of the extracted CD
Track | Start | Length | Start sector | End sector
---------------------------------------------------------
1 | 0:00.00 | 2:29.65 | 0 | 11239
2 | 2:29.65 | 8:59.37 | 11240 | 51701
3 | 11:29.27 | 1:41.18 | 51702 | 59294
4 | 13:10.45 | 1:55.40 | 59295 | 67959
5 | 15:06.10 | 3:49.20 | 67960 | 85154
6 | 18:55.30 | 0:36.05 | 85155 | 87859
7 | 19:31.35 | 2:16.12 | 87860 | 98071
8 | 21:47.47 | 1:35.00 | 98072 | 105196
9 | 23:22.47 | 1:11.10 | 105197 | 110531
10 | 24:33.57 | 0:25.10 | 110532 | 112416
11 | 24:58.67 | 2:27.45 | 112417 | 123486
12 | 27:26.37 | 3:17.05 | 123487 | 138266
13 | 30:43.42 | 0:20.45 | 138267 | 139811
14 | 31:04.12 | 1:05.73 | 139812 | 144759
15 | 32:10.10 | 2:02.65 | 144760 | 153974
16 | 34:13.00 | 1:19.37 | 153975 | 159936
17 | 35:32.37 | 4:38.33 | 159937 | 180819
18 | 40:10.70 | 1:54.45 | 180820 | 189414
19 | 42:05.40 | 0:13.50 | 189415 | 190439
20 | 42:19.15 | 2:02.50 | 190440 | 199639
21 | 44:21.65 | 3:37.32 | 199640 | 215946
22 | 47:59.22 | 5:03.05 | 215947 | 238676
23 | 53:02.27 | 1:40.63 | 238677 | 246239
24 | 54:43.15 | 0:30.02 | 246240 | 248491
25 | 55:13.17 | 2:11.20 | 248492 | 258336
26 | 57:24.37 | 0:18.03 | 258337 | 259689
27 | 57:42.40 | 1:46.57 | 259690 | 267696
28 | 59:29.22 | 2:03.55 | 267697 | 276976
29 | 61:33.02 | 1:13.30 | 276977 | 282481
30 | 62:46.32 | 3:11.23 | 282482 | 296829
31 | 65:57.55 | 3:12.10 | 296830 | 311239
Track 1
Filename F:\MIMIC\Christmas 2014\Handel, arr Mozart - Der Messias - Hermann Max\CD 2\201 [coro] Kommt her und seht das Lamm!.wav
Pre-gap length 0:00:02.00
Peak level 53.7 %
Extraction speed 2.2 X
Track quality 100.0 %
Test CRC B006B533
Copy CRC B006B533
Accurately ripped (confidence 2) [DBB63536] (AR v2)
Copy OK
Track 2
Filename F:\MIMIC\Christmas 2014\Handel, arr Mozart - Der Messias - Hermann Max\CD 2\202 [aria] Er ward verschmäht.wav
Pre-gap length 0:00:00.05
Peak level 26.4 %
Extraction speed 2.7 X
Track quality 99.9 %
Test CRC A18A622E
Copy CRC A18A622E
Accurately ripped (confidence 2) [9FA2BB36] (AR v2)
Copy OK
Track 3
Filename F:\MIMIC\Christmas 2014\Handel, arr Mozart - Der Messias - Hermann Max\CD 2\203 [coro] Wahrlich! Er litt unsre Qual.wav
Pre-gap length 0:00:00.05
Peak level 72.1 %
Extraction speed 1.7 X
Track quality 99.8 %
Test CRC 6E088012
Copy CRC 6E088012
Accurately ripped (confidence 2) [C80D7120] (AR v2)
Copy OK
Track 4
Filename F:\MIMIC\Christmas 2014\Handel, arr Mozart - Der Messias - Hermann Max\CD 2\204 [coro] Durch seine Wunden sind wir geheilet.wav
Pre-gap length 0:00:00.05
Peak level 42.5 %
Extraction speed 1.9 X
Track quality 99.9 %
Test CRC AF84A337
Copy CRC AF84A337
Accurately ripped (confidence 2) [954E398C] (AR v2)
Copy OK
Track 5
Filename F:\MIMIC\Christmas 2014\Handel, arr Mozart - Der Messias - Hermann Max\CD 2\205 [coro] Wie Schafe geh'n.wav
Pre-gap length 0:00:00.03
Peak level 71.7 %
Extraction speed 3.2 X
Track quality 100.0 %
Test CRC A2BDEB98
Copy CRC A2BDEB98
Accurately ripped (confidence 2) [A69AA76C] (AR v2)
Copy OK
Track 6
Filename F:\MIMIC\Christmas 2014\Handel, arr Mozart - Der Messias - Hermann Max\CD 2\206 [rec acc] Und alle, die ihn seh'n.wav
Pre-gap length 0:00:00.05
Peak level 43.9 %
Extraction speed 1.8 X
Track quality 100.0 %
Test CRC 9E803B85
Copy CRC 9E803B85
Accurately ripped (confidence 2) [67914833] (AR v2)
Copy OK
Track 7
Filename F:\MIMIC\Christmas 2014\Handel, arr Mozart - Der Messias - Hermann Max\CD 2\207 [coro] Er trauete Gott.wav
Pre-gap length 0:00:00.03
Peak level 65.9 %
Extraction speed 3.1 X
Track quality 100.0 %
Test CRC 5171FEF9
Copy CRC 5171FEF9
Accurately ripped (confidence 2) [F441874A] (AR v2)
Copy OK
Track 8
Filename F:\MIMIC\Christmas 2014\Handel, arr Mozart - Der Messias - Hermann Max\CD 2\208 [rec acc] Die Schmach bricht ihm sein Herz.wav
Pre-gap length 0:00:00.07
Peak level 67.3 %
Extraction speed 2.8 X
Track quality 100.0 %
Test CRC EC3E4403
Copy CRC EC3E4403
Accurately ripped (confidence 2) [D7CA7162] (AR v2)
Copy OK
Track 9
Filename F:\MIMIC\Christmas 2014\Handel, arr Mozart - Der Messias - Hermann Max\CD 2\209 [aria] Schau hin und sieh!.wav
Pre-gap length 0:00:00.02
Peak level 67.3 %
Extraction speed 2.6 X
Track quality 100.0 %
Test CRC 7D88ABDB
Copy CRC 7D88ABDB
Accurately ripped (confidence 2) [77DB147E] (AR v2)
Copy OK
Track 10
Filename F:\MIMIC\Christmas 2014\Handel, arr Mozart - Der Messias - Hermann Max\CD 2\210 [rec acc] Er ist dahin aus dem Lande der Lebenden.wav
Pre-gap length 0:00:00.05
Peak level 38.3 %
Extraction speed 1.6 X
Track quality 100.0 %
Test CRC 4BDCAA3F
Copy CRC 4BDCAA3F
Accurately ripped (confidence 2) [740A8E5A] (AR v2)
Copy OK
Track 11
Filename F:\MIMIC\Christmas 2014\Handel, arr Mozart - Der Messias - Hermann Max\CD 2\211 [aria] Doch du ließest ihn im Grabe nicht.wav
Pre-gap length 0:00:00.02
Peak level 39.1 %
Extraction speed 3.3 X
Track quality 100.0 %
Test CRC 9A4C5B51
Copy CRC 9A4C5B51
Accurately ripped (confidence 2) [95B218D2] (AR v2)
Copy OK
Track 12
Filename F:\MIMIC\Christmas 2014\Handel, arr Mozart - Der Messias - Hermann Max\CD 2\212 [coro] Machet das Tor weit.wav
Pre-gap length 0:00:00.05
Peak level 74.1 %
Extraction speed 3.6 X
Track quality 100.0 %
Test CRC 199040EF
Copy CRC 199040EF
Accurately ripped (confidence 2) [290949E9] (AR v2)
Copy OK
Track 13
Filename F:\MIMIC\Christmas 2014\Handel, arr Mozart - Der Messias - Hermann Max\CD 2\213 [rec] Zu welchen von den Engeln hat er je gesagt.wav
Pre-gap length 0:00:00.05
Peak level 27.1 %
Extraction speed 1.4 X
Track quality 100.0 %
Test CRC A6C225F9
Copy CRC A6C225F9
Accurately ripped (confidence 2) [906CB6B0] (AR v2)
Copy OK
Track 14
Filename F:\MIMIC\Christmas 2014\Handel, arr Mozart - Der Messias - Hermann Max\CD 2\214 [coro] Der Herr gab das Wort.wav
Pre-gap length 0:00:00.02
Peak level 66.2 %
Extraction speed 2.8 X
Track quality 100.0 %
Test CRC 8CBFD0A8
Copy CRC 8CBFD0A8
Accurately ripped (confidence 2) [BB7524D4] (AR v2)
Copy OK
Track 15
Filename F:\MIMIC\Christmas 2014\Handel, arr Mozart - Der Messias - Hermann Max\CD 2\215 [aria] Wie lieblich ist der Boten Schritt.wav
Pre-gap length 0:00:00.03
Peak level 38.3 %
Extraction speed 3.3 X
Track quality 100.0 %
Test CRC 5DFE891B
Copy CRC 5DFE891B
Accurately ripped (confidence 2) [33CC5F78] (AR v2)
Copy OK
Track 16
Filename F:\MIMIC\Christmas 2014\Handel, arr Mozart - Der Messias - Hermann Max\CD 2\216 [coro] Ihr Schall ging aus in jedes Land.wav
Pre-gap length 0:00:00.03
Peak level 63.0 %
Extraction speed 3.1 X
Track quality 100.0 %
Test CRC AC942CD6
Copy CRC AC942CD6
Accurately ripped (confidence 2) [8742EB6B] (AR v2)
Copy OK
Track 17
Filename F:\MIMIC\Christmas 2014\Handel, arr Mozart - Der Messias - Hermann Max\CD 2\217 [aria] Warum entbrennen die Heiden.wav
Pre-gap length 0:00:00.02
Peak level 68.9 %
Extraction speed 4.1 X
Track quality 100.0 %
Test CRC A0971B43
Copy CRC A0971B43
Accurately ripped (confidence 2) [4F3CF80F] (AR v2)
Copy OK
Track 18
Filename F:\MIMIC\Christmas 2014\Handel, arr Mozart - Der Messias - Hermann Max\CD 2\218 [coro] Brecht entzwei die Ketten alle.wav
Pre-gap length 0:00:00.05
Peak level 56.6 %
Extraction speed 3.6 X
Track quality 100.0 %
Test CRC 832F9752
Copy CRC 832F9752
Accurately ripped (confidence 2) [30F92B68] (AR v2)
Copy OK
Track 19
Filename F:\MIMIC\Christmas 2014\Handel, arr Mozart - Der Messias - Hermann Max\CD 2\219 [rec] Der da wohnet im Himmel.wav
Pre-gap length 0:00:00.03
Peak level 37.6 %
Extraction speed 1.2 X
Track quality 100.0 %
Test CRC ABBE8821
Copy CRC ABBE8821
Accurately ripped (confidence 2) [9186A10B] (AR v2)
Copy OK
Track 20
Filename F:\MIMIC\Christmas 2014\Handel, arr Mozart - Der Messias - Hermann Max\CD 2\220 [aria] Du zerschlägest sie mit dem Eisenszepter.wav
Pre-gap length 0:00:00.03
Peak level 56.5 %
Extraction speed 3.7 X
Track quality 100.0 %
Test CRC 04C932C4
Copy CRC 04C932C4
Accurately ripped (confidence 2) [7DB6F9BE] (AR v2)
Copy OK
Track 21
Filename F:\MIMIC\Christmas 2014\Handel, arr Mozart - Der Messias - Hermann Max\CD 2\221 [coro] Halleluja!.wav
Pre-gap length 0:00:00.05
Peak level 87.0 %
Extraction speed 3.3 X
Track quality 99.9 %
Test CRC 4E75B33B
Copy CRC 4E75B33B
Accurately ripped (confidence 2) [1825E4FE] (AR v2)
Copy OK
Track 22
Filename F:\MIMIC\Christmas 2014\Handel, arr Mozart - Der Messias - Hermann Max\CD 2\222 [aria] Ich weiß, daß mein Erlöser lebet.wav
Pre-gap length 0:00:09.25
Peak level 37.3 %
Extraction speed 4.6 X
Track quality 100.0 %
Test CRC B8537823
Copy CRC B8537823
Accurately ripped (confidence 2) [4F533F1F] (AR v2)
Copy OK
Track 23
Filename F:\MIMIC\Christmas 2014\Handel, arr Mozart - Der Messias - Hermann Max\CD 2\223 [coro] Wie durch Einen der Tod.wav
Pre-gap length 0:00:00.02
Peak level 61.7 %
Extraction speed 3.8 X
Track quality 100.0 %
Test CRC F851AED0
Copy CRC F851AED0
Accurately ripped (confidence 2) [B78A7C96] (AR v2)
Copy OK
Track 24
Filename F:\MIMIC\Christmas 2014\Handel, arr Mozart - Der Messias - Hermann Max\CD 2\224 [rec acc] Merkt auf!.wav
Pre-gap length 0:00:00.05
Peak level 49.2 %
Extraction speed 2.2 X
Track quality 100.0 %
Test CRC 078055AB
Copy CRC 078055AB
Accurately ripped (confidence 2) [DFF3DE2A] (AR v2)
Copy OK
Track 25
Filename F:\MIMIC\Christmas 2014\Handel, arr Mozart - Der Messias - Hermann Max\CD 2\225 [aria] Sie schallt, die Posaun'.wav
Pre-gap length 0:00:00.02
Peak level 62.1 %
Extraction speed 4.1 X
Track quality 100.0 %
Test CRC DAF64283
Copy CRC DAF64283
Accurately ripped (confidence 2) [5E4F1E7E] (AR v2)
Copy OK
Track 26
Filename F:\MIMIC\Christmas 2014\Handel, arr Mozart - Der Messias - Hermann Max\CD 2\226 [rec] Dann wird erfüllt das Wort.wav
Pre-gap length 0:00:00.05
Peak level 26.6 %
Extraction speed 1.6 X
Track quality 100.0 %
Test CRC 199C839E
Copy CRC 199C839E
Accurately ripped (confidence 2) [53A4A44A] (AR v2)
Copy OK
Track 27
Filename F:\MIMIC\Christmas 2014\Handel, arr Mozart - Der Messias - Hermann Max\CD 2\227 [duetto] O Tod, wo ist dein Pfeil.wav
Pre-gap length 0:00:00.03
Peak level 30.5 %
Extraction speed 3.9 X
Track quality 100.0 %
Test CRC B4F15BE2
Copy CRC B4F15BE2
Accurately ripped (confidence 2) [2369B647] (AR v2)
Copy OK
Track 28
Filename F:\MIMIC\Christmas 2014\Handel, arr Mozart - Der Messias - Hermann Max\CD 2\228 [coro] Doch Dank sei dir, Gott.wav
Pre-gap length 0:00:00.02
Peak level 71.6 %
Extraction speed 4.2 X
Track quality 100.0 %
Test CRC 84AD61E9
Copy CRC 84AD61E9
Accurately ripped (confidence 2) [3B3DEE7D] (AR v2)
Copy OK
Track 29
Filename F:\MIMIC\Christmas 2014\Handel, arr Mozart - Der Messias - Hermann Max\CD 2\229 [rec acc] Wenn Gott ist für uns.wav
Pre-gap length 0:00:00.02
Peak level 44.8 %
Extraction speed 2.2 X
Track quality 99.8 %
Test CRC F78A1C58
Copy CRC F78A1C58
Accurately ripped (confidence 2) [4027AB99] (AR v2)
Copy OK
Track 30
Filename F:\MIMIC\Christmas 2014\Handel, arr Mozart - Der Messias - Hermann Max\CD 2\230 [coro] Würdig ist das Lamm.wav
Pre-gap length 0:00:00.02
Peak level 87.0 %
Extraction speed 4.7 X
Track quality 100.0 %
Test CRC 59A2DDA3
Copy CRC 59A2DDA3
Accurately ripped (confidence 2) [8BAD3A1B] (AR v2)
Copy OK
Track 31
Filename F:\MIMIC\Christmas 2014\Handel, arr Mozart - Der Messias - Hermann Max\CD 2\231 [coro] Amen.wav
Pre-gap length 0:00:00.03
Peak level 87.0 %
Extraction speed 4.8 X
Track quality 100.0 %
Test CRC EBE445B9
Copy CRC EBE445B9
Accurately ripped (confidence 2) [50ED3DFE] (AR v2)
Copy OK
All tracks accurately ripped
No errors occurred
End of status report
==== Log checksum BC6DAAFA792116BC8D01AEFAFB389541509919013ECEBEEF4D73F92876D9E582 ====
Содержание индексной карты (.CUE)
CD1

скрытый текст

REM GENRE Classical
REM DATE 1992
REM DISCID 2C0C8417
REM COMMENT "ExactAudioCopy v1.0b3"
PERFORMER "Rheinische Kantorei, Das Kleine Konzert/Hermann Max"
TITLE "Der Messias"
FILE "101 Overture.wav" WAVE
TRACK 01 AUDIO
TITLE "Overture"
PERFORMER "Rheinische Kantorei, Das Kleine Konzert/Hermann Max"
INDEX 01 00:00:00
TRACK 02 AUDIO
TITLE "[rec acc] Trцstet Zion"
PERFORMER "Rheinische Kantorei, Das Kleine Konzert/Hermann Max"
INDEX 00 02:52:55
FILE "102 [rec acc] Trцstet Zion.wav" WAVE
INDEX 01 00:00:00
TRACK 03 AUDIO
TITLE "[aria] Alle Tale macht hoch und erhaben"
PERFORMER "Rheinische Kantorei, Das Kleine Konzert/Hermann Max"
INDEX 00 02:51:40
FILE "103 [aria] Alle Tale macht hoch und erhaben.wav" WAVE
INDEX 01 00:00:00
TRACK 04 AUDIO
TITLE "[coro] Denn die Herrlichkeit Gottes des Herrn"
PERFORMER "Rheinische Kantorei, Das Kleine Konzert/Hermann Max"
INDEX 00 03:27:28
FILE "104 [coro] Denn die Herrlichkeit Gottes des Herrn.wav" WAVE
INDEX 01 00:00:00
TRACK 05 AUDIO
TITLE "[rec acc] So spricht der Herr"
PERFORMER "Rheinische Kantorei, Das Kleine Konzert/Hermann Max"
INDEX 00 02:42:45
FILE "105 [rec acc] So spricht der Herr.wav" WAVE
INDEX 01 00:00:00
TRACK 06 AUDIO
TITLE "[aria] Doch wer mag ertragen den Tag seiner Ankunft"
PERFORMER "Rheinische Kantorei, Das Kleine Konzert/Hermann Max"
INDEX 00 01:22:40
FILE "106 [aria] Doch wer mag ertragen den Tag seiner Ankunft.wav" WAVE
INDEX 01 00:00:00
TRACK 07 AUDIO
TITLE "[coro] Und er wird reinigen die Kinder Levi"
PERFORMER "Rheinische Kantorei, Das Kleine Konzert/Hermann Max"
INDEX 00 03:48:35
FILE "107 [coro] Und er wird reinigen die Kinder Levi.wav" WAVE
INDEX 01 00:00:00
TRACK 08 AUDIO
TITLE "[rec] Denn sieh! Eine Jungfrau wird schwanger"
PERFORMER "Rheinische Kantorei, Das Kleine Konzert/Hermann Max"
INDEX 00 02:24:20
FILE "108 [rec] Denn sieh! Eine Jungfrau wird schwanger.wav" WAVE
INDEX 01 00:00:00
TRACK 09 AUDIO
TITLE "[aria] O du, die Wonne verkьndet in Zion"
PERFORMER "Rheinische Kantorei, Das Kleine Konzert/Hermann Max"
INDEX 00 00:27:32
FILE "109 [aria] O du, die Wonne verkьndet in Zion.wav" WAVE
INDEX 01 00:00:00
TRACK 10 AUDIO
TITLE "[coro] O du, die Wonne verkьndet in Zion"
PERFORMER "Rheinische Kantorei, Das Kleine Konzert/Hermann Max"
INDEX 00 04:00:07
FILE "110 [coro] O du, die Wonne verkьndet in Zion.wav" WAVE
INDEX 01 00:00:00
TRACK 11 AUDIO
TITLE "[rec acc] Blick auf! Nacht bedecket das Erdreich"
PERFORMER "Rheinische Kantorei, Das Kleine Konzert/Hermann Max"
INDEX 00 01:32:42
FILE "111 [rec acc] Blick auf! Nacht bedecket das Erdreich.wav" WAVE
INDEX 01 00:00:00
TRACK 12 AUDIO
TITLE "[aria] Das Volk, das im Dunkeln wandelt"
PERFORMER "Rheinische Kantorei, Das Kleine Konzert/Hermann Max"
INDEX 00 01:59:45
FILE "112 [aria] Das Volk, das im Dunkeln wandelt.wav" WAVE
INDEX 01 00:00:00
TRACK 13 AUDIO
TITLE "[coro] Uns ist zum Heil ein Kind geboren"
PERFORMER "Rheinische Kantorei, Das Kleine Konzert/Hermann Max"
INDEX 00 04:32:15
FILE "113 [coro] Uns ist zum Heil ein Kind geboren.wav" WAVE
INDEX 01 00:00:00
TRACK 14 AUDIO
TITLE "Pifa"
PERFORMER "Rheinische Kantorei, Das Kleine Konzert/Hermann Max"
INDEX 00 03:42:70
FILE "114 Pifa.wav" WAVE
INDEX 01 00:00:00
TRACK 15 AUDIO
TITLE "[rec] Es waren Hirten beisammen auf dem Felde"
PERFORMER "Rheinische Kantorei, Das Kleine Konzert/Hermann Max"
INDEX 00 02:22:12
FILE "115 [rec] Es waren Hirten beisammen auf dem Felde.wav" WAVE
INDEX 01 00:00:00
TRACK 16 AUDIO
TITLE "[rec acc] Und sieh! Der Engel des Herrn"
PERFORMER "Rheinische Kantorei, Das Kleine Konzert/Hermann Max"
INDEX 00 00:10:55
FILE "116 [rec acc] Und sieh! Der Engel des Herrn.wav" WAVE
INDEX 01 00:00:00
TRACK 17 AUDIO
TITLE "[rec] Und der Engel sprach zu ihnen"
PERFORMER "Rheinische Kantorei, Das Kleine Konzert/Hermann Max"
INDEX 00 00:16:50
FILE "117 [rec] Und der Engel sprach zu ihnen.wav" WAVE
INDEX 01 00:00:00
TRACK 18 AUDIO
TITLE "[rec acc] Und alsbald war da"
PERFORMER "Rheinische Kantorei, Das Kleine Konzert/Hermann Max"
INDEX 00 00:41:37
FILE "118 [rec acc] Und alsbald war da.wav" WAVE
INDEX 01 00:00:00
TRACK 19 AUDIO
TITLE "[coro] Ehre sei Gott in der Hцhe!"
PERFORMER "Rheinische Kantorei, Das Kleine Konzert/Hermann Max"
INDEX 00 00:17:10
FILE "119 [coro] Ehre sei Gott in der Hцhe!.wav" WAVE
INDEX 01 00:00:00
TRACK 20 AUDIO
TITLE "[aria] Erwach' zu Liedern der Wonne"
PERFORMER "Rheinische Kantorei, Das Kleine Konzert/Hermann Max"
INDEX 00 01:44:48
FILE "120 [aria] Erwach' zu Liedern der Wonne.wav" WAVE
INDEX 01 00:00:00
TRACK 21 AUDIO
TITLE "[rec] Dann tut das Auge des Blinden sich auf"
PERFORMER "Rheinische Kantorei, Das Kleine Konzert/Hermann Max"
INDEX 00 04:00:27
FILE "121 [rec] Dann tut das Auge des Blinden sich auf.wav" WAVE
INDEX 01 00:00:00
TRACK 22 AUDIO
TITLE "[aria] Er weidet seine Herde"
PERFORMER "Rheinische Kantorei, Das Kleine Konzert/Hermann Max"
INDEX 00 00:24:00
FILE "122 [aria] Er weidet seine Herde.wav" WAVE
INDEX 01 00:00:00
TRACK 23 AUDIO
TITLE "[coro] Sein Joch ist sanft"
PERFORMER "Rheinische Kantorei, Das Kleine Konzert/Hermann Max"
INDEX 00 04:53:68
FILE "123 [coro] Sein Joch ist sanft.wav" WAVE
INDEX 01 00:00:00
CD2

скрытый текст

REM GENRE Classical
REM DATE 1992
REM DISCID D310351F
REM COMMENT "ExactAudioCopy v1.0b3"
PERFORMER "Rheinische Kantorei, Das Kleine Konzert/Hermann Max"
TITLE "Der Messias"
FILE "201 [coro] Kommt her und seht das Lamm!.wav" WAVE
TRACK 01 AUDIO
TITLE "[coro] Kommt her und seht das Lamm!"
PERFORMER "Rheinische Kantorei, Das Kleine Konzert/Hermann Max"
INDEX 01 00:00:00
TRACK 02 AUDIO
TITLE "[aria] Er ward verschmдht"
PERFORMER "Rheinische Kantorei, Das Kleine Konzert/Hermann Max"
INDEX 00 02:29:60
FILE "202 [aria] Er ward verschmдht.wav" WAVE
INDEX 01 00:00:00
TRACK 03 AUDIO
TITLE "[coro] Wahrlich! Er litt unsre Qual"
PERFORMER "Rheinische Kantorei, Das Kleine Konzert/Hermann Max"
INDEX 00 08:59:32
FILE "203 [coro] Wahrlich! Er litt unsre Qual.wav" WAVE
INDEX 01 00:00:00
TRACK 04 AUDIO
TITLE "[coro] Durch seine Wunden sind wir geheilet"
PERFORMER "Rheinische Kantorei, Das Kleine Konzert/Hermann Max"
INDEX 00 01:41:13
FILE "204 [coro] Durch seine Wunden sind wir geheilet.wav" WAVE
INDEX 01 00:00:00
TRACK 05 AUDIO
TITLE "[coro] Wie Schafe geh'n"
PERFORMER "Rheinische Kantorei, Das Kleine Konzert/Hermann Max"
INDEX 00 01:55:37
FILE "205 [coro] Wie Schafe geh'n.wav" WAVE
INDEX 01 00:00:00
TRACK 06 AUDIO
TITLE "[rec acc] Und alle, die ihn seh'n"
PERFORMER "Rheinische Kantorei, Das Kleine Konzert/Hermann Max"
INDEX 00 03:49:15
FILE "206 [rec acc] Und alle, die ihn seh'n.wav" WAVE
INDEX 01 00:00:00
TRACK 07 AUDIO
TITLE "[coro] Er trauete Gott"
PERFORMER "Rheinische Kantorei, Das Kleine Konzert/Hermann Max"
INDEX 00 00:36:02
FILE "207 [coro] Er trauete Gott.wav" WAVE
INDEX 01 00:00:00
TRACK 08 AUDIO
TITLE "[rec acc] Die Schmach bricht ihm sein Herz"
PERFORMER "Rheinische Kantorei, Das Kleine Konzert/Hermann Max"
INDEX 00 02:16:05
FILE "208 [rec acc] Die Schmach bricht ihm sein Herz.wav" WAVE
INDEX 01 00:00:00
TRACK 09 AUDIO
TITLE "[aria] Schau hin und sieh!"
PERFORMER "Rheinische Kantorei, Das Kleine Konzert/Hermann Max"
INDEX 00 01:34:73
FILE "209 [aria] Schau hin und sieh!.wav" WAVE
INDEX 01 00:00:00
TRACK 10 AUDIO
TITLE "[rec acc] Er ist dahin aus dem Lande der Lebenden"
PERFORMER "Rheinische Kantorei, Das Kleine Konzert/Hermann Max"
INDEX 00 01:11:05
FILE "210 [rec acc] Er ist dahin aus dem Lande der Lebenden.wav" WAVE
INDEX 01 00:00:00
TRACK 11 AUDIO
TITLE "[aria] Doch du lieЯest ihn im Grabe nicht"
PERFORMER "Rheinische Kantorei, Das Kleine Konzert/Hermann Max"
INDEX 00 00:25:08
FILE "211 [aria] Doch du lieЯest ihn im Grabe nicht.wav" WAVE
INDEX 01 00:00:00
TRACK 12 AUDIO
TITLE "[coro] Machet das Tor weit"
PERFORMER "Rheinische Kantorei, Das Kleine Konzert/Hermann Max"
INDEX 00 02:27:40
FILE "212 [coro] Machet das Tor weit.wav" WAVE
INDEX 01 00:00:00
TRACK 13 AUDIO
TITLE "[rec] Zu welchen von den Engeln hat er je gesagt"
PERFORMER "Rheinische Kantorei, Das Kleine Konzert/Hermann Max"
INDEX 00 03:17:00
FILE "213 [rec] Zu welchen von den Engeln hat er je gesagt.wav" WAVE
INDEX 01 00:00:00
TRACK 14 AUDIO
TITLE "[coro] Der Herr gab das Wort"
PERFORMER "Rheinische Kantorei, Das Kleine Konzert/Hermann Max"
INDEX 00 00:20:43
FILE "214 [coro] Der Herr gab das Wort.wav" WAVE
INDEX 01 00:00:00
TRACK 15 AUDIO
TITLE "[aria] Wie lieblich ist der Boten Schritt"
PERFORMER "Rheinische Kantorei, Das Kleine Konzert/Hermann Max"
INDEX 00 01:05:70
FILE "215 [aria] Wie lieblich ist der Boten Schritt.wav" WAVE
INDEX 01 00:00:00
TRACK 16 AUDIO
TITLE "[coro] Ihr Schall ging aus in jedes Land"
PERFORMER "Rheinische Kantorei, Das Kleine Konzert/Hermann Max"
INDEX 00 02:02:62
FILE "216 [coro] Ihr Schall ging aus in jedes Land.wav" WAVE
INDEX 01 00:00:00
TRACK 17 AUDIO
TITLE "[aria] Warum entbrennen die Heiden"
PERFORMER "Rheinische Kantorei, Das Kleine Konzert/Hermann Max"
INDEX 00 01:19:35
FILE "217 [aria] Warum entbrennen die Heiden.wav" WAVE
INDEX 01 00:00:00
TRACK 18 AUDIO
TITLE "[coro] Brecht entzwei die Ketten alle"
PERFORMER "Rheinische Kantorei, Das Kleine Konzert/Hermann Max"
INDEX 00 04:38:28
FILE "218 [coro] Brecht entzwei die Ketten alle.wav" WAVE
INDEX 01 00:00:00
TRACK 19 AUDIO
TITLE "[rec] Der da wohnet im Himmel"
PERFORMER "Rheinische Kantorei, Das Kleine Konzert/Hermann Max"
INDEX 00 01:54:42
FILE "219 [rec] Der da wohnet im Himmel.wav" WAVE
INDEX 01 00:00:00
TRACK 20 AUDIO
TITLE "[aria] Du zerschlдgest sie mit dem Eisenszepter"
PERFORMER "Rheinische Kantorei, Das Kleine Konzert/Hermann Max"
INDEX 00 00:13:47
FILE "220 [aria] Du zerschlдgest sie mit dem Eisenszepter.wav" WAVE
INDEX 01 00:00:00
TRACK 21 AUDIO
TITLE "[coro] Halleluja!"
PERFORMER "Rheinische Kantorei, Das Kleine Konzert/Hermann Max"
INDEX 00 02:02:45
FILE "221 [coro] Halleluja!.wav" WAVE
INDEX 01 00:00:00
TRACK 22 AUDIO
TITLE "[aria] Ich weiЯ, daЯ mein Erlцser lebet"
PERFORMER "Rheinische Kantorei, Das Kleine Konzert/Hermann Max"
INDEX 00 03:28:07
FILE "222 [aria] Ich weiЯ, daЯ mein Erlцser lebet.wav" WAVE
INDEX 01 00:00:00
TRACK 23 AUDIO
TITLE "[coro] Wie durch Einen der Tod"
PERFORMER "Rheinische Kantorei, Das Kleine Konzert/Hermann Max"
INDEX 00 05:03:03
FILE "223 [coro] Wie durch Einen der Tod.wav" WAVE
INDEX 01 00:00:00
TRACK 24 AUDIO
TITLE "[rec acc] Merkt auf!"
PERFORMER "Rheinische Kantorei, Das Kleine Konzert/Hermann Max"
INDEX 00 01:40:58
FILE "224 [rec acc] Merkt auf!.wav" WAVE
INDEX 01 00:00:00
TRACK 25 AUDIO
TITLE "[aria] Sie schallt, die Posaun'"
PERFORMER "Rheinische Kantorei, Das Kleine Konzert/Hermann Max"
INDEX 00 00:30:00
FILE "225 [aria] Sie schallt, die Posaun'.wav" WAVE
INDEX 01 00:00:00
TRACK 26 AUDIO
TITLE "[rec] Dann wird erfьllt das Wort"
PERFORMER "Rheinische Kantorei, Das Kleine Konzert/Hermann Max"
INDEX 00 02:11:15
FILE "226 [rec] Dann wird erfьllt das Wort.wav" WAVE
INDEX 01 00:00:00
TRACK 27 AUDIO
TITLE "[duetto] O Tod, wo ist dein Pfeil"
PERFORMER "Rheinische Kantorei, Das Kleine Konzert/Hermann Max"
INDEX 00 00:18:00
FILE "227 [duetto] O Tod, wo ist dein Pfeil.wav" WAVE
INDEX 01 00:00:00
TRACK 28 AUDIO
TITLE "[coro] Doch Dank sei dir, Gott"
PERFORMER "Rheinische Kantorei, Das Kleine Konzert/Hermann Max"
INDEX 00 01:46:55
FILE "228 [coro] Doch Dank sei dir, Gott.wav" WAVE
INDEX 01 00:00:00
TRACK 29 AUDIO
TITLE "[rec acc] Wenn Gott ist fьr uns"
PERFORMER "Rheinische Kantorei, Das Kleine Konzert/Hermann Max"
INDEX 00 02:03:53
FILE "229 [rec acc] Wenn Gott ist fьr uns.wav" WAVE
INDEX 01 00:00:00
TRACK 30 AUDIO
TITLE "[coro] Wьrdig ist das Lamm"
PERFORMER "Rheinische Kantorei, Das Kleine Konzert/Hermann Max"
INDEX 00 01:13:28
FILE "230 [coro] Wьrdig ist das Lamm.wav" WAVE
INDEX 01 00:00:00
TRACK 31 AUDIO
TITLE "[coro] Amen"
PERFORMER "Rheinische Kantorei, Das Kleine Konzert/Hermann Max"
INDEX 00 03:11:20
FILE "231 [coro] Amen.wav" WAVE
INDEX 01 00:00:00
[teatrix.ru].t19890.torrent 
Торрент: Зарегистрирован [ 2016-03-19 00:22 ] · 62EF69AE94C9D4F604ED738F306176B0366F1BFD

Скачать .torrent

Скачать

17 KB

Статус: проверено
Скачан: 0 раз
Размер: 574 MB
terms.php



Быстрый ответ

Имя:

      
Для отправки сообщений необходимо включить JavaScript
Показать сообщения:    

Текущее время: 04-Дек 11:15

Часовой пояс: UTC + 3


Вы можете начинать темы
Вы можете отвечать на сообщения
Вы не можете редактировать свои сообщения
Вы не можете удалять свои сообщения
Вы не можете голосовать в опросах
Вы не можете прикреплять файлы к сообщениям
Вы можете скачивать файлы