Чудесный госпиталь / The Wonder Hospital (Беомсик Шимбе Шим / Beomsik Shimbe Shim) [2010, США, авторская анимация, WEBRip-AVC]


 

[Цитировать]

Чудесный госпиталь / The Wonder Hospital
Страна: США
Жанр: авторская анимация
Год выпуска: 2010
Продолжительность: 00:11:34
Перевод: не требуется
Cубтитры: нет
Режиссёр: Беомсик Шимбе Шим / Beomsik Shimbe Shim
Описание: Девушка с несколько искривлёнными чертами лица приходит в клинику пластической хирургии. Это учреждение оказывается мрачноватым и очень странным местом...
Доп. информация: Фильм студента Калифорнийского института искусств.
14 фестивальных наград
Качество видео: WEBRip-AVC
Формат видео: MP4
Видео: 2485 kbps, 1280х720 (16:9), 24.000 fps, AVC (High@L3.1)
Аудио: 158 kbps, 44.1 kHz, 2 channels, AAC (LC)

MediaInfo

General
Complete name : The Wonder Hospital (2010).mp4
Format : MPEG-4
Format profile : Base Media
Codec ID : isom
File size : 219 MiB
Duration : 11mn 34s
Overall bit rate mode : Variable
Overall bit rate : 2 646 Kbps
Encoded date : UTC 2011-10-15 09:35:04
Tagged date : UTC 2011-10-16 09:35:09
Video
ID : 1
Format : AVC
Format/Info : Advanced Video Codec
Format profile : High@L3.1
Format settings, CABAC : Yes
Format settings, ReFrames : 4 frames
Codec ID : avc1
Codec ID/Info : Advanced Video Coding
Duration : 11mn 34s
Bit rate : 2 485 Kbps
Maximum bit rate : 8 001 Kbps
Width : 1 280 pixels
Height : 720 pixels
Display aspect ratio : 16:9
Frame rate mode : Constant
Frame rate : 24.000 fps
Color space : YUV
Chroma subsampling : 4:2:0
Bit depth : 8 bits
Scan type : Progressive
Bits/(Pixel*Frame) : 0.112
Stream size : 206 MiB (94%)
Writing library : Vimeo Encoder
Encoded date : UTC 2011-10-15 09:35:04
Tagged date : UTC 2011-10-15 09:35:08
Audio
ID : 2
Format : AAC
Format/Info : Advanced Audio Codec
Format profile : LC
Codec ID : 40
Duration : 11mn 34s
Bit rate mode : Variable
Bit rate : 158 Kbps
Maximum bit rate : 321 Kbps
Channel(s) : 2 channels
Channel positions : Front: L R
Sampling rate : 44.1 KHz
Compression mode : Lossy
Stream size : 13.1 MiB (6%)
Encoded date : UTC 2011-10-15 09:35:08
Tagged date : UTC 2011-10-15 09:35:08

Скриншот c названием фильма

Скриншоты




Показать сообщения:    

Текущее время: 04-Дек 11:14

Часовой пояс: UTC + 3


Вы не можете начинать темы
Вы не можете отвечать на сообщения
Вы не можете редактировать свои сообщения
Вы не можете удалять свои сообщения
Вы не можете голосовать в опросах
Вы не можете прикреплять файлы к сообщениям
Вы не можете скачивать файлы