(Opera) Lazzari - La Tour de Feu / The Firestorm (Ferrer, Fronval, Beckmans, Froumenty - Choeurs et Orchestre de Palais Garnier, Ruhlmann) - 2006, APE (image+.cue) lossless


 

[Цитировать]

Sylvio Lazzari - La Tour de Feu
Жанр: Opera
Страна-производитель диска: Germany
Год издания диска: 2006
Издатель (лейбл): Cantus Classics
Номер по каталогу: 5.00865
Дата записи: 1944
Аудиокодек: APE
Тип рипа: image+.cue
Битрейт аудио: lossless
Продолжительность: 39'28+28'07
Источник: собственный рип
Наличие сканов в содержимом раздачи: да
Треклист:
CD1
1. Acte I - Danse de la noce
2. Acte I - Qu'es-tu venu chercher dans notre humble village?
3. Acte II - Tout est ici solitude et silence (Choeur des pêcheurs)
4. Acte II - Mon cauchemar s'est dissipé
5. Acte II - O-hé! Yves, es-tu là? (Choeur des pêcheurs)
6. Acte II - Me voilà seule, toute seule
7. Acte II - Le seigneur a le vif désir
CD2
1. Acte III - Prélude
2. Acte III - J'avais pressenti
3. Acte III - Le signal
4. Acte III - Finale, Le navire est échoué
Исполнители:
Sylvio Lazzari - La Tour de Feu
Opera in 3 acts
Libretto: Renate Leichtfuss
Naic - Marisa Ferrer, soprano
Yves - Charles Fronval, tenor
Don Jacinto - José Beckmans, bariton
Yann - Pierre Froumenty, bass
Choeurs et Orchestre de Palais Garnier
François Ruhlmann
Paris 1944
Sung in French

Лог создания рипа

CD1

Exact Audio Copy V1.0 beta 3 from 29. August 2011
EAC extraction logfile from 19. October 2014, 15:39
Lazzari / La Tour de Feu, Ruhlmann CD1
Used drive : TS8XDVDSTRANSCEND Adapter: 1 ID: 1
Read mode : Secure
Utilize accurate stream : Yes
Defeat audio cache : Yes
Make use of C2 pointers : No
Read offset correction : 6
Overread into Lead-In and Lead-Out : No
Fill up missing offset samples with silence : Yes
Delete leading and trailing silent blocks : No
Null samples used in CRC calculations : Yes
Used interface : Native Win32 interface for Win NT & 2000
Used output format : Monkey's Audio Lossless Encoder
Selected bitrate : High Lossless Compression
Quality : High
Add ID3 tag : Yes
Command line compressor : C:\Program Files (x86)\Exact Audio Copy\MAC\MAC.exe
TOC of the extracted CD
Track | Start | Length | Start sector | End sector
---------------------------------------------------------
1 | 0:00.00 | 3:01.73 | 0 | 13647
2 | 3:01.73 | 6:00.63 | 13648 | 40710
3 | 9:02.61 | 7:58.16 | 40711 | 76576
4 | 17:01.02 | 2:52.67 | 76577 | 89543
5 | 19:53.69 | 5:01.36 | 89544 | 112154
6 | 24:55.30 | 5:13.49 | 112155 | 135678
7 | 30:09.04 | 9:29.24 | 135679 | 178377
Range status and errors
Selected range
Filename D:\EAC\Lazzari - La Tour de Feu, Ruhlmann CD1.wav
Peak level 95.2 %
Extraction speed 1.7 X
Range quality 99.9 %
Test CRC DFF75C24
Copy CRC DFF75C24
Copy OK
No errors occurred
AccurateRip summary
Track 1 accurately ripped (confidence 1) [84CE21BA] (AR v1)
Track 2 accurately ripped (confidence 1) [3A182931] (AR v1)
Track 3 accurately ripped (confidence 1) [8EDC436B] (AR v1)
Track 4 accurately ripped (confidence 1) [0E0446FE] (AR v1)
Track 5 accurately ripped (confidence 1) [6B693455] (AR v1)
Track 6 accurately ripped (confidence 1) [E0862A86] (AR v1)
Track 7 accurately ripped (confidence 1) [0ABDB8EC] (AR v1)
All tracks accurately ripped
End of status report
---- CUETools DB Plugin V2.1.3
[CTDB TOCID: TQwssnQkwPsx3DOQpY7fq9.DTf4-] disk not present in database, Submit result: unrecognized or virtual drive
==== Log checksum 2156D73D523B6FD7D6400C4947DF55626FA50CDD0B72EF8ED1E789FE5C5C8694 ====

CD2

Exact Audio Copy V1.0 beta 3 from 29. August 2011
EAC extraction logfile from 19. October 2014, 15:29
Lazzari / La Tour de Feu, Ruhlmann CD2
Used drive : TSSTcorpCDDVDW SE-208AB Adapter: 1 ID: 0
Read mode : Secure
Utilize accurate stream : Yes
Defeat audio cache : Yes
Make use of C2 pointers : No
Read offset correction : 6
Overread into Lead-In and Lead-Out : No
Fill up missing offset samples with silence : Yes
Delete leading and trailing silent blocks : No
Null samples used in CRC calculations : Yes
Used interface : Native Win32 interface for Win NT & 2000
Used output format : Monkey's Audio Lossless Encoder
Selected bitrate : High Lossless Compression
Quality : High
Add ID3 tag : Yes
Command line compressor : C:\Program Files (x86)\Exact Audio Copy\MAC\MAC.exe
TOC of the extracted CD
Track | Start | Length | Start sector | End sector
---------------------------------------------------------
1 | 0:00.00 | 2:36.61 | 0 | 11760
2 | 2:36.61 | 9:59.62 | 11761 | 56747
3 | 12:36.48 | 12:03.40 | 56748 | 111012
4 | 24:40.13 | 3:27.58 | 111013 | 126595
Range status and errors
Selected range
Filename D:\EAC\Lazzari - La Tour de Feu, Ruhlmann CD2.wav
Peak level 97.0 %
Extraction speed 1.7 X
Range quality 100.0 %
Test CRC AEB4FCC5
Copy CRC AEB4FCC5
Copy OK
No errors occurred
AccurateRip summary
Track 1 accurately ripped (confidence 1) [18842F5F] (AR v1)
Track 2 accurately ripped (confidence 1) [3343A064] (AR v1)
Track 3 accurately ripped (confidence 1) [54E69E00] (AR v1)
Track 4 accurately ripped (confidence 1) [DE3B3695] (AR v1)
All tracks accurately ripped
End of status report
---- CUETools DB Plugin V2.1.3
[CTDB TOCID: 49SGGUx.1Yq1NR.oLamVEhcHsOY-] disk not present in database, Submit result: 49SGGUx.1Yq1NR.oLamVEhcHsOY- has been uploaded
==== Log checksum 548E5EDD2ABC746700E5230CE7B0638968373800CC0A2B6F82871C7F580ED7D2 ====

Содержание индексной карты (.CUE)

CD1

REM GENRE Opera
REM DATE 1944
REM DISCID 51094A07
REM COMMENT "ExactAudioCopy v1.0b3"
PERFORMER "Lazzari "
TITLE "La Tour de Feu, Ruhlmann CD1"
FILE "Lazzari - La Tour de Feu, Ruhlmann CD1.ape" WAVE
TRACK 01 AUDIO
TITLE "Acte I - Danse de la noce"
PERFORMER "Lazzari "
ISRC 000000000000
INDEX 01 00:00:00
TRACK 02 AUDIO
TITLE "Acte I - Qu'es-tu venu chercher dans notre humble village?"
PERFORMER "Lazzari "
ISRC 000000000000
INDEX 01 03:01:73
TRACK 03 AUDIO
TITLE "Acte II - Tout est ici solitude et silence (Choeur des pêcheurs)"
PERFORMER "Lazzari "
ISRC 000000000000
INDEX 01 09:02:61
TRACK 04 AUDIO
TITLE "Acte II - Mon cauchemar s'est dissipé"
PERFORMER "Lazzari "
ISRC 000000000000
INDEX 01 17:01:02
TRACK 05 AUDIO
TITLE "Acte II - O-hé! Yves, es-tu là? (Choeur des pêcheurs)"
PERFORMER "Lazzari "
ISRC 000000000000
INDEX 01 19:53:69
TRACK 06 AUDIO
TITLE "Acte II - Me voilà seule, toute seule"
PERFORMER "Lazzari "
ISRC 000000000000
INDEX 01 24:55:30
TRACK 07 AUDIO
TITLE "Acte II - Le seigneur a le vif désir"
PERFORMER "Lazzari "
ISRC 000000000000
INDEX 01 30:09:04

CD2

REM GENRE Opera
REM DATE 1944
REM DISCID 33069704
REM COMMENT "ExactAudioCopy v1.0b3"
PERFORMER "Lazzari "
TITLE "La Tour de Feu, Ruhlmann CD2"
FILE "Lazzari - La Tour de Feu, Ruhlmann CD2.ape" WAVE
TRACK 01 AUDIO
TITLE "Acte III - Prélude"
PERFORMER "Lazzari "
ISRC 000000000000
INDEX 01 00:00:00
TRACK 02 AUDIO
TITLE "Acte III - J'avais pressenti"
PERFORMER "Lazzari "
ISRC 000000000000
INDEX 01 02:36:61
TRACK 03 AUDIO
TITLE "Acte III - Le signal"
PERFORMER "Lazzari "
ISRC 000000000000
INDEX 01 12:36:48
TRACK 04 AUDIO
TITLE "Acte III - Finale, Le navire est échoué"
PERFORMER "Lazzari "
ISRC 000000000000
INDEX 01 24:40:13



Показать сообщения:    

Текущее время: 04-Дек 06:58

Часовой пояс: UTC + 3


Вы не можете начинать темы
Вы не можете отвечать на сообщения
Вы не можете редактировать свои сообщения
Вы не можете удалять свои сообщения
Вы не можете голосовать в опросах
Вы не можете прикреплять файлы к сообщениям
Вы не можете скачивать файлы