Луи Рено и Андре Ситроен: Гонка века / Louis Renault et Andre Citroen, la course du siecle (Фабьен Безиа / Fabien Beziat) [2011, документальный, биография, DVB] VO (Первый канал)


Статистика раздачи [Обновить пиров]
Размер:  2.28 GB   |    Зарегистрирован:  8 месяцев 16 дней   |    Скачан:  0 раз

Полного источника не было: Никогда

Личеров:  3  [  0 KB/s  ]   Подробная статистика пиров
 
   
 
 
 

[Цитировать]

Луи Рено и Андре Ситроен: Гонка века
Louis Renault et André Citroën, la course du siècle- Дата/Год выпуска: 2011
Страна: Франция
Жанр: документальный, биография
Продолжительность: 01:33:46
Перевод: Студийный (одноголосый закадровый)
Доп. инфо о переводе: По заказу ЗАО "Первый канал. Всемирная сеть"
Русские субтитры: нет
Режиссер: Фабьен Безиа / Fabien Béziat
Телеканал: Время: далекое и близкоеОписание: Париж, 1934 год. На ступеньках Гран-Пале двое мужчин впервые сфотографированы друг с другом. Их лица вам не знакомы, Рено и Ситроен. Два автомобильных магната. Судьба не пощадит ни того, ни другого. Один через несколько недель внезапно умрет, другого ждут тяжелейшие испытания. Франция забудет о людях, но созданные ими компании станут частью ее истории.
Первая их встреча состоялась 50 годами раньше, в парижском лицее Кондорсе. 8-летние мальчишки не знали тогда, что заболеют одной страстью. Страстью, которой суждено будет разобщить их, а под конец – погубить.
Вы узнаете удивительную историю Луи Рено и Андре Ситроена.
Доп. информация: DVB-S
Участник Festival international du film d'histoire de Pessac 2012.

качество: DVB
формат: MKV
Видео: MPEG Video 2, 720x576@768x576 (4:3), 25 fps, ~3220 kbps avg, 0.311 bit/pixel
Аудио: MPEG Audio 2, 2 ch, 48 kHz, ~192.00 kbps avg

MediaInfo

Общее
Уникальный идентификатор : 203098258240128039902141387548699683423 (0x98CB4D3D81821CCEBD25F6E12CA06A5F)
Полное имя : E:\My Torrents 2\[apreder]Louis_Renault_et_Andre_Citroen_la_course_du_siecle(2011)DVB.mkv
Формат : Matroska
Версия формата : Version 2
Размер файла : 2,28 Гбайт
Продолжительность : 1 ч. 33 м.
Режим общего битрейта : Переменный
Общий поток : 3482 Кбит/сек
Дата кодирования : UTC 2014-12-26 16:39:11
Программа кодирования : mkvmerge v7.4.0 ('Circles') 64bit built on Dec 12 2014 12:19:56
Библиотека кодирования : libebml v1.3.0 + libmatroska v1.4.1
Видео
Идентификатор : 1
Формат : MPEG Video
Версия формата : Version 2
Профиль формата : Main@Main
Параметр BVOP формата : Да
Параметр матрицы формата : Выборочная
Параметр GOP формата : M=3, N=12
Format_Settings_PictureStructure : Frame
Идентификатор кодека : V_MPEG2
Идентификатор кодека/Информация : MPEG 1 or 2 Video
Продолжительность : 1 ч. 33 м.
Вид битрейта : Переменный
Битрейт : 3220 Кбит/сек
Ширина : 720 пикселей
Высота : 576 пикселей
Соотношение сторон : 4:3
Режим частоты кадров : Постоянный
Частота кадров : 25,000 кадров/сек
Стандарт вещания : PAL
Цветовое пространство : YUV
Субдискретизация насыщенности : 4:2:0
Битовая глубина : 8 бит
Тип развёртки : Чересстрочная
Порядок развёртки : Верхнее поле первое
Метод сжатия : С потерями
Бит/(Пиксели*Кадры) : 0.311
Временной код первого кадра : 00:00:00:00
Оригинал временного кода : Group of pictures header
Размер потока : 2,11 Гбайт (92%)
Default : Да
Forced : Нет
Gop_OpenClosed_FirstFrame : Closed
Аудио
Идентификатор : 2
Формат : MPEG Audio
Версия формата : Version 1
Профиль формата : Layer 2
Идентификатор кодека : A_MPEG/L2
Идентификатор кодека/Подсказка : MP2
Продолжительность : 1 ч. 33 м.
Вид битрейта : Постоянный
Битрейт : 192 Кбит/сек
Каналы : 2 канала
Частота : 48,0 КГц
Метод сжатия : С потерями
Размер потока : 129 Мбайт (6%)
Язык : Russian
Default : Да
Forced : Нет

Скриншоты

Резервные скриншоты

-[2'005]
[teatrix.ru].t19897.torrent 
Торрент: Зарегистрирован [ 2016-03-19 00:22 ] · CDD8F1696A6AB8503400600686B5624641284C45

Скачать .torrent

Скачать

12 KB

Статус: проверено
Скачан: 0 раз
Размер: 2.28 GB
terms.php



Быстрый ответ

Имя:

      
Для отправки сообщений необходимо включить JavaScript
Показать сообщения:    

Текущее время: 04-Дек 13:11

Часовой пояс: UTC + 3


Вы можете начинать темы
Вы можете отвечать на сообщения
Вы не можете редактировать свои сообщения
Вы не можете удалять свои сообщения
Вы не можете голосовать в опросах
Вы не можете прикреплять файлы к сообщениям
Вы можете скачивать файлы