Последние свидания (Юрий Титов) [2014 г., драма, SATRip] Московский театр "Мастерская Петра Фоменко"


 

[Цитировать]

Последние свидания Название театра: Московский театр "Мастерская Петра Фоменко".
Год выпуска: 2014.
Жанр: драма.
Продолжительность: 02:12:20.
Режиссеры: Юрий Титов, Александр Смирнов.
Действующие лица и исполнители:
Глебов - Юрий Титов,
Надя - Наталья Мартынова,
Ли - Серафима Огарева,
Генрих - Ирина Горбачева,
Иван Алексеевич - Дмитрий Захаров,
Виталий Мещерский - Амбарцум Кабанян,
Соня Черкасова - Серафима Огарева,
Натали Станкевич - Наталья Мартынова,
Гаша - Ирина Горбачева,
Черкасов - Владимир Свирский,
Мещерский - Дмитрий Захаров,
Сергей Владимирович - Владимир Свирский,
Поля - Серафима Огарева.
О спектакле:
Спектакль "Последние свидания" создан на основе произведений из бунинского сборника "Темные аллеи", одного из самых пронзительных в российской литературе повествований о внезапной любви и драматизме человеческого существования. В спектакле использованы рассказы "Речной трактир", "Натали", "Мадрид" и "Генрих". Все они о любви, которая была, но не сбылась. И о людях, которые упустили свое счастье.
Дополнительная информация:
Страна: Россия .
Выпущено: © Московский театр "Мастерская Петра Фоменко", "Культу.Ру!".
Автор: Иван Бунин.
Режиссура и инсценировка: Юрий Титов.
Руководитель постановки: заслуженный деятель искусств РФ Евгений Каменькович.
Художник: Валентина Останькович.
Художник по свету: Владислав Фролов.
Музыкальное оформление: Ольга Федорова.
Премьера спектакля состоялась 19 сентября 2013 года.
Режиссер телеверсии: Александр Смирнов.
Оператор-постановщик: Владимир Иванов.

О спектакле.
Релиз

Качество видео:...SATRip
Формат:.................AVI
Видео:..720x400 (1.80:1), 25 fps, XviD MPEG-4 ~1441 kbps avg, 0.20 bit/pixel
Аудио:..44.100 kHz, MPEG Layer 3, 2 ch, ~128.00 kbps avg

Отчет MI

Общее
Полное имя : Poslednie.svidaniya_Masterskkaya.Fomenko.2014.XviD.SATRip.fenixclub.avi
Format : AVI
Format/Info : Audio Video Interleave
File size : 1.46 GiB
Duration : 2h 12mn
Overall bit rate : 1 579 Kbps
Video
ID : 0
Format : MPEG-4 Visual
Format profile : Advanced Simple@L5
Format settings, BVOP : 2
Format settings, QPel : No
Format settings, GMC : No warppoints
Format settings, Matrix : Default (H.263)
Codec ID : XVID
Codec ID/Hint : XviD
Duration : 2h 12mn
Bit rate : 1 442 Kbps
Width : 720 pixels
Height : 400 pixels
Display aspect ratio : 16:9
Frame rate : 25.000 fps
Color space : YUV
Chroma subsampling : 4:2:0
Bit depth : 8 bits
Scan type : Progressive
Compression mode : Lossy
Bits/(Pixel*Frame) : 0.200
Stream size : 1.33 GiB (91%)
Writing library : XviD 1.2.1 (UTC 2008-12-04)
Audio
ID : 1
Format : MPEG Audio
Format version : Version 1
Format profile : Layer 3
Mode : Joint stereo
Mode extension : MS Stereo
Codec ID : 55
Codec ID/Hint : MP3
Duration : 2h 12mn
Source duration : 2h 12mn
Bit rate mode : Constant
Bit rate : 128 Kbps
Channel(s) : 2 channels
Sampling rate : 44.1 KHz
Compression mode : Lossy
Stream size : 121 MiB (8%)
Alignment : Aligned on interleaves
Interleave, duration : 40 ms (1.00 video frame)
Writing library : LAME3.98

Скриншот с названием постановки

Скриншоты


Альтернативный хост





Показать сообщения:    

Текущее время: 03-Дек 03:23

Часовой пояс: UTC + 3


Вы не можете начинать темы
Вы не можете отвечать на сообщения
Вы не можете редактировать свои сообщения
Вы не можете удалять свои сообщения
Вы не можете голосовать в опросах
Вы не можете прикреплять файлы к сообщениям
Вы не можете скачивать файлы